Login
Username:
Password:
Remember Me:
[Signup]
[Recover Account]
Friends
BTScene
Friendly site

Ale Torrenty Team
Friendly site

Anime RG
Friendly site

KaranPC
Friendly site

P2PDL.com
Friendly site

Free Tutorials & Courses
Friendly site
Torrent Details For "The.Lego.Ninjago.Movie.2017.HC.720p.HDRiP.AC3.x264-LEGi0N"

The.Lego.Ninjago.Movie.2017.HC.720p.HDRiP.AC3.x264-LEGi0N

To download this torrent, you need a BitTorrent client: Vuze or BTGuard
Download this torrent
Download using Magnet Link

Direct Download - no client needed

Download Faster - High Speed Download

Health:
Seeds: 1
Leechers: 0
Completed:
Last Checked: 13-10-2017 06:19:53

Uploader Reputation points : 118992
External: Torrent




Write a Review for the Uploader:   55   Say Thanks with one good review:
Share on Facebook


Details
Name:The.Lego.Ninjago.Movie.2017.HC.720p.HDRiP.AC3.x264-LEGi0N
Description:
The.Lego.Ninjago.Movie.2017.HC.720p.HDRiP.AC3.x264-LEGi0N

ImDb: http://www.imdb.com/title/tt3014284



Complete name                            : The.Lego.Ninjago.Movie.2017.HC.720p.HDRiP.AC3.x264-LEGi0N.mkv
Format                                   : Matroska
Format version                           : Version 4 / Version 2
File size                                : 1.34 GiB
Duration                                 : 1 h 37 min
Overall bit rate                         : 1 973 kb/s
Movie name                               : The.Lego.Ninjago.Movie.2017.HC.720p.HDRiP.AC3.x264-LEGi0N
Encoded date                             : UTC 2017-10-13 04:57:48
Writing application                      : mkvmerge v10.0.0 ('To Drown In You') 64bit
Writing library                          : libebml v1.3.4 + libmatroska v1.4.5

Video
ID                                       : 1
Format                                   : AVC
Format/Info                              : Advanced Video Codec
Format profile                           : [email protected]
Format settings, CABAC                   : Yes
Format settings, ReFrames                : 12 frames
Codec ID                                 : V_MPEG4/ISO/AVC
Duration                                 : 1 h 37 min
Bit rate                                 : 1 780 kb/s
Width                                    : 1 280 pixels
Height                                   : 534 pixels
Display aspect ratio                     : 2.40:1
Frame rate mode                          : Constant
Frame rate                               : 25.000 FPS
Color space                              : YUV
Chroma subsampling                       : 4:2:0
Bit depth                                : 8 bits
Scan type                                : Progressive
Bits/(Pixel*Frame)                       : 0.104
Stream size                              : 1.21 GiB (90%)
Title                                    : The.Lego.Ninjago.Movie.2017.HC.720p.HDRiP.AC3.x264-LEGi0N
Writing library                          : x264 core 142 r2431+42 c69a006 tMod [[email protected] X86]
Encoding settings                        : cabac=1 / ref=12 / deblock=1:1:1 / analyse=0x3:0x113 / me=hex / subme=7 / psy=1 / fade_compensate=0.00 / psy_rd=1.00:0.00 / mixed_ref=1 / me_range=16 / chroma_me=1 / trellis=2 / 8x8dct=1 / cqm=0 / deadzone=21,11 / fast_pskip=0 / chroma_qp_offset=-2 / threads=48 / lookahead_threads=4 / sliced_threads=0 / nr=0 / decimate=1 / interlaced=0 / bluray_compat=0 / constrained_intra=0 / fgo=0 / bframes=7 / b_pyramid=2 / b_adapt=2 / b_bias=0 / direct=1 / weightb=1 / open_gop=0 / weightp=2 / keyint=250 / keyint_min=25 / scenecut=40 / intra_refresh=0 / rc_lookahead=40 / rc=crf / mbtree=1 / crf=21.5000 / qcomp=0.60 / qpmin=0:0:0 / qpmax=69:69:69 / qpstep=4 / vbv_maxrate=49000 / vbv_bufsize=49000 / crf_max=0.0 / nal_hrd=none / filler=0 / ip_ratio=1.40 / aq=3:1.00 / aq-sensitivity=10.00 / aq-factor=1.00:1.00:1.00 / aq2=0 / aq3=0
Language                                 : English
Default                                  : Yes
Forced                                   : No
Color range                              : Limited
Color primaries                          : BT.709
Transfer characteristics                 : BT.709
Matrix coefficients                      : BT.709

Audio
ID                                       : 2
Format                                   : AC-3
Format/Info                              : Audio Coding 3
Format settings, Endianness              : Big
Codec ID                                 : A_AC3
Duration                                 : 1 h 37 min
Bit rate mode                            : Constant
Bit rate                                 : 192 kb/s
Channel(s)                               : 2 channels
Channel positions                        : Front: L R
Sampling rate                            : 48.0 kHz
Frame rate                               : 31.250 FPS (1536 spf)
Bit depth                                : 16 bits
Compression mode                         : Lossy
Delay relative to video                  : 27 ms
Stream size                              : 134 MiB (10%)
Title                                    : The.Lego.Ninjago.Movie.2017.HC.720p.HDRiP.AC3.x264-LEGi0N
Language                                 : English
Service kind                             : Complete Main
Default                                  : Yes
Forced                                   : No

Menu
00:00:00.000                             : en:Chapter 01
00:05:00.000                             : en:Chapter 02
00:10:00.000                             : en:Chapter 03
00:15:00.000                             : en:Chapter 04
00:20:00.000                             : en:Chapter 05
00:25:00.000                             : en:Chapter 06
00:30:00.000                             : en:Chapter 07
00:35:00.000                             : en:Chapter 08
00:40:00.000                             : en:Chapter 09
00:45:00.000                             : en:Chapter 10
00:50:00.000                             : en:Chapter 11
00:55:00.000                             : en:Chapter 12
01:00:00.000                             : en:Chapter 13
01:05:00.000                             : en:Chapter 14
01:10:00.000                             : en:Chapter 15
01:15:00.000                             : en:Chapter 16
01:20:00.000                             : en:Chapter 17
01:25:00.000                             : en:Chapter 18
01:30:00.000                             : en:Chapter 19
01:35:00.000                             : en:Chapter 20






Click To View Screenshot

Click To View Screenshot

Click To View Screenshot
YouTube Video:
Category:Movies
Language:English  English
Total Size:1.41 GB
Info Hash:6189423DAB32DED0D7F2208F9F579DC88818E671
Added By:Simmoncelli VIPMovie Pirate
Date Added:13-10-2017 06:19:53
Torrent Status:Torrent Verified


Ratings:Not Yet Rated (Log in to rate it)


Tracker:
udp://tracker.coppersurfer.tk:6969/announce

This Torrent also has backup trackers
URLSeedersLeechersCompleted
udp://tracker.coppersurfer.tk:6969/announce000
udp://tracker.pirateparty.gr:6969/announce000
udp://shadowshq.yi.org:6969/announce000
udp://eddie4.nl:6969/announce000
udp://tracker.leechers-paradise.org:6969/announce000
udp://tracker.opentrackr.org:1337/announce000
udp://p4p.arenabg.ch:1337/announce000
udp://p4p.arenabg.com:1337/announce000
udp://9.rarbg.me:2710/announce000
udp://9.rarbg.to:2710/announce000
udp://ipv4.tracker.harry.lu:80/announce000
udp://tracker.grepler.com:6969/announce000
udp://public.popcorn-tracker.org:6969/announce000
udp://tracker.opentrackr.org:1337/announce000
udp://tracker.zer0day.to:1337/announce000


File List: 





Comments
No comments still posted