Download The Mandalorian 2x05 720p H264 ita eng Ac3-5 1 sub ita eng-MIRCrew torrent - GloDLS
Torrent Details For "The Mandalorian 2x05 720p H264 ita eng Ac3-5 1 sub ita eng-MIRCrew"

The Mandalorian 2x05 720p H264 ita eng Ac3-5 1 sub ita eng-MIRCrew

To download this torrent, you need a BitTorrent client: Vuze or BTGuard
Download this torrent
Download using Magnet Link

Health:
Seeds: 138
Leechers: 20
Completed: 6,097 
Last Checked: 30-12-2020 15:53:17

Uploader Reputation points : 4074
External: Torrent






Write a Review for the Uploader:   5   Say Thanks with one good review:
Share on Facebook


Details
Name:The Mandalorian 2x05 720p H264 ita eng Ac3-5 1 sub ita eng-MIRCrew
Description:
The Mandalorian 2x05.720p.H264.ita.eng.Ac3-5.1.sub.ita.eng-MIRCrew





Paese Stati Uniti d'America
Anno 2020 – in produzione
Formato webserie
Genere fantascienza
Lingua originale inglese



The Mandalorian è ambientato dopo la caduta dell'Impero e prima del regno di terrore del Primo Ordine. Segue le avventure travagliate di un pistolero solitario nei meandri più reconditi

della galassia, lontano dall'autorità della Nuova Repubblica.



The Mandalorian (also known as Star Wars: The Mandalorian) is an American space western web television series that premiered on Disney+ on November 12, 2019. Set in the Star

Wars universe, the series takes place five years after the events of Return of the Jedi and follows a Mandalorian bounty hunter beyond the reaches of the New Republic.



 Pedro Pascal: The Mandalorian
 Gina Carano: Cara Dune
 Nick Nolte
 Giancarlo Esposito
 Carl Weathers: Greef Karga
 Emily Swallow
 Omid Abtahi
 Werner Herzog
 Taika Waititi: IG-11
 Bill Burr












General

Complete name                            : The Mandalorian 2x05 Capitolo 13 La Jedi.720p.h264.ita.eng.sub.ita.eng-MIRCrew\The Mandalorian 2x05 Capitolo 13 La Jedi.720p.h264.ita.eng.sub.ita.eng-MIRCrew.mkv
Format                                   : Matroska
Format version                           : Version 2
File size                                : 846 MiB
Duration                                 : 44mn 45s
Overall bit rate                         : 2 642 Kbps
Movie name                               : MIRCrew
Encoded date                             : UTC 2020-11-28T17:50:26Z
Writing application                      : mkvmerge v5.8.0 ('No Sleep / Pillow') built on Sep  2 2012 15:37:04
Writing library                          : Lavf55.12.0

Video
ID                                       : 1
Format                                   : AVC
Format/Info                              : Advanced Video Codec
Format profile                           : [email protected]
Format settings, CABAC                   : Yes
Format settings, ReFrames                : 4 frames
Codec ID                                 : V_MPEG4/ISO/AVC
Duration                                 : 44mn 45s
Bit rate                                 : 1 900 Kbps
Width                                    : 1 280 pixels
Height                                   : 544 pixels
Display aspect ratio                     : 2.35:1
Frame rate                               : 23.976 fps
Color space                              : YUV
Chroma subsampling                       : 4:2:0
Bit depth                                : 8 bits
Scan type                                : Progressive
Bits/(Pixel*Frame)                       : 0.114
Stream size                              : 583 MiB (69%)
Title                                    : MIRCrew
Writing library                          : x264 core 142 r2479 dd79a61
Encoding settings                        : cabac=1 / ref=1 / deblock=1:0:0 / analyse=0x1:0x111 / me=hex / subme=2 / psy=1 / psy_rd=1.00:0.00 / mixed_ref=0 / me_range=16 / chroma_me=1 / trellis=0 / 8x8dct=0 / cqm=0 / deadzone=21,11 / fast_pskip=1 / chroma_qp_offset=0 / threads=9 / lookahead_threads=3 / sliced_threads=0 / nr=0 / decimate=1 / interlaced=0 / bluray_compat=0 / constrained_intra=0 / bframes=3 / b_pyramid=2 / b_adapt=1 / b_bias=0 / direct=1 / weightb=1 / open_gop=0 / weightp=1 / keyint=240 / keyint_min=24 / scenecut=40 / intra_refresh=0 / rc_lookahead=10 / rc=abr / mbtree=1 / bitrate=1900 / ratetol=1.0 / qcomp=0.60 / qpmin=0 / qpmax=69 / qpstep=4 / vbv_maxrate=50000 / vbv_bufsize=62500 / nal_hrd=none / filler=0 / ip_ratio=1.40 / aq=1:1.00
Language                                 : Italian
Default                                  : Yes
Forced                                   : No
Color primaries                          : BT.709-5, BT.1361, IEC 61966-2-4, SMPTE RP177
Transfer characteristics                 : BT.709-5, BT.1361
Matrix coefficients                      : BT.709-5, BT.1361, IEC 61966-2-4 709, SMPTE RP177

Audio #1
ID                                       : 2
Format                                   : AC-3
Format/Info                              : Audio Coding 3
Mode extension                           : CM (complete main)
Codec ID                                 : A_AC3
Duration                                 : 44mn 45s
Bit rate mode                            : Constant
Bit rate                                 : 384 Kbps
Channel(s)                               : 6 channels
Channel positions                        : Front: L C R, Side: L R, LFE
Sampling rate                            : 48.0 KHz
Bit depth                                : 16 bits
Compression mode                         : Lossy
Delay relative to video                  : -83ms
Stream size                              : 123 MiB (15%)
Title                                    : Ita Ac3 5.1
Language                                 : Italian
Default                                  : Yes
Forced                                   : No

Audio #2
ID                                       : 3
Format                                   : AC-3
Format/Info                              : Audio Coding 3
Mode extension                           : CM (complete main)
Codec ID                                 : A_AC3
Duration                                 : 44mn 45s
Bit rate mode                            : Constant
Bit rate                                 : 384 Kbps
Channel(s)                               : 6 channels
Channel positions                        : Front: L C R, Side: L R, LFE
Sampling rate                            : 48.0 KHz
Bit depth                                : 16 bits
Compression mode                         : Lossy
Delay relative to video                  : -5ms
Stream size                              : 123 MiB (15%)
Title                                    : Eng Ac3 5.1
Language                                 : English
Default                                  : No
Forced                                   : No





YouTube Video:
Category:TV
Language:English  English
Total Size:845.74 MB
Info Hash:03B52B57F15C165566693AB2ABE5F86991BB2B9B
Added By:MIRCrewRS Verified Uploader
Date Added:2020-11-30 22:59:14
Torrent Status:Torrent Verified


Ratings:Not Yet Rated (Log in to rate it)


Tracker:
udp://tracker.torrent.eu.org:451/announce

This Torrent also has backup trackers
URLSeedersLeechersCompleted
udp://tracker.torrent.eu.org:451/announce2211,634
udp://tracker.coppersurfer.tk:6969/announce000
udp://tracker.torrent.eu.org:451/announce2211,634
udp://tracker.pirateparty.gr:6969/announce000
udp://tracker.leechers-paradise.org:6969/announce000
udp://tracker.cyberia.is:6969/announce164783
udp://tracker.iamhansen.xyz:2000/announce000
udp://p4p.arenabg.com:1337/announce82441
udp://explodie.org:6969/announce600
udp://tracker.opentrackr.org:1337/announce214960
udp://tracker.tiny-vps.com:6969/announce122125
udp://exodus.desync.com:6969/announce1112
udp://ipv4.tracker.harry.lu:80/announce820
udp://open.stealth.si:80/announce123518
udp://9.rarbg.to:2710/announce000


File List: 





Comments
No comments still posted