Download The Secret Life of Pets 2 (2019) 720p BluRay x264 [Dual-Audio][Hindi 5 1 - English] ESubs - Downloadhub torrent - GloDLS
Torrent Details For "The Secret Life of Pets 2 (2019) 720p BluRay x264 [Dual-Audio][Hindi 5 1 - English] E..."

The Secret Life of Pets 2 (2019) 720p BluRay x264 [Dual-Audio][Hindi 5 1 - English] E...

To download this torrent, you need a BitTorrent client: Vuze or BTGuard
Download this torrent
Download using Magnet Link

Health:
Seeds: 0
Leechers: 3
Completed:
Last Checked: 04-10-2019 12:24:54

Uploader Reputation points : 3499
External: Torrent






Write a Review for the Uploader:   10   Say Thanks with one good review:
Share on Facebook


Details
Name:The Secret Life of Pets 2 (2019) 720p BluRay x264 [Dual-Audio][Hindi 5 1 - English] E...
Description:






Format                                   : AVC
Format/Info                              : Advanced Video Codec
Format profile                           : [email protected]
Format settings                          : CABAC / 8 Ref Frames
Format settings, CABAC                   : Yes
Format settings, RefFrames               : 8 frames
Codec ID                                 : V_MPEG4/ISO/AVC
Duration                                 : 1 h 26 min
Bit rate                                 : 1 071 kb/s
Width                                    : 1 280 pixels
Height                                   : 688 pixels
Display aspect ratio                     : 1.85:1
Frame rate mode                          : Constant
Frame rate                               : 23.976 (24000/1001) FPS
Color space                              : YUV
Chroma subsampling                       : 4:2:0
Bit depth                                : 8 bits
Scan type                                : Progressive
Bits/(Pixel*Frame)                       : 0.051
Stream size                              : 659 MiB (77%)
Writing library                          : x264 core 148 r2638 7599210
Encoding settings                        : cabac=1 / ref=8 / deblock=1:0:0 / analyse=0x3:0x133 / me=hex / subme=9 / psy=1 / psy_rd=1.00:0.15 / mixed_ref=1 / me_range=16 / chroma_me=1 / trellis=2 / 8x8dct=1 / cqm=0 / deadzone=21,11 / fast_pskip=1 / chroma_qp_offset=-3 / threads=12 / lookahead_threads=1 / sliced_threads=0 / nr=200 / decimate=1 / interlaced=0 / bluray_compat=0 / constrained_intra=0 / bframes=3 / b_pyramid=2 / b_adapt=1 / b_bias=0 / direct=3 / weightb=1 / open_gop=0 / weightp=2 / keyint=240 / keyint_min=23 / scenecut=40 / intra_refresh=0 / rc_lookahead=40 / rc=2pass / mbtree=1 / bitrate=1071 / ratetol=1.0 / qcomp=0.60 / qpmin=0 / qpmax=69 / qpstep=4 / cplxblur=20.0 / qblur=0.5 / vbv_maxrate=62500 / vbv_bufsize=78125 / nal_hrd=none / filler=0 / ip_ratio=1.40 / aq=1:1.00
Default                                  : Yes
Forced                                   : No
Color range                              : Limited
Color primaries                          : Generic film
Transfer characteristics                 : BT.709
Matrix coefficients                      : BT.709

Audio #1
ID                                       : 2
Format                                   : AAC
Format/Info                              : Advanced Audio Codec
Format profile                           : HE-AAC / LC
Format settings                          : Explicit
Codec ID                                 : A_AAC-2
Duration                                 : 1 h 26 min
Bit rate                                 : 192 kb/s
Channel(s)                               : 6 channels
Channel positions                        : Front: L C R, Side: L R, LFE
Sampling rate                            : 44.1 kHz / 22.05 kHz
Frame rate                               : 21.533 FPS (1024 SPF)
Compression mode                         : Lossy
Delay relative to video                  : 33 ms
Stream size                              : 116 MiB (14%)
Language                                 : Hindi
Default                                  : No
Forced                                   : No

Audio #2
ID                                       : 3
Format                                   : AAC
Format/Info                              : Advanced Audio Codec
Format profile                           : LC
Codec ID                                 : A_AAC-2
Duration                                 : 1 h 26 min
Bit rate                                 : 127 kb/s
Channel(s)                               : 6 channels
Channel positions                        : Front: L C R, Side: L R, LFE
Sampling rate                            : 48.0 kHz
Frame rate                               : 46.875 FPS (1024 SPF)
Compression mode                         : Lossy
Delay relative to video                  : 9 ms
Stream size                              : 78.0 MiB (9%)
Language                                 : English
Default                                  : No
Forced                                   : No

Text #1
ID                                       : 4
Format                                   : UTF-8
Codec ID                                 : S_TEXT/UTF8
Codec ID/Info                            : UTF-8 Plain Text
Duration                                 : 1 h 25 min
Bit rate                                 : 77 b/s
Count of elements                        : 1924
Stream size                              : 48.5 KiB (0%)
Default                                  : Yes
Forced                                   : No

Text #2
ID                                       : 5
Format                                   : UTF-8
Codec ID                                 : S_TEXT/UTF8
Codec ID/Info                            : UTF-8 Plain Text
Duration                                 : 1 h 25 min
Bit rate                                 : 47 b/s
Count of elements                        : 1229
Stream size                              : 29.9 KiB (0%)
Default                                  : No
Forced                                   : No










YouTube Video:
Category:Movies
Language:Hindi  Hindi
Total Size:855.20 MB
Info Hash:1F64164F1946F6D95783D86DF9442D6DF316158F
Added By:downloadhub Verified UploaderMovie Pirate
Date Added:2019-10-04 19:24:52
Torrent Status:Torrent Verified


Ratings:Not Yet Rated (Log in to rate it)


Tracker:
udp://tracker.coppersurfer.tk:6969/announce

This Torrent also has backup trackers
URLSeedersLeechersCompleted
udp://tracker.coppersurfer.tk:6969/announce000
udp://tracker.coppersurfer.tk:80/announce000
udp://tracker.coppersurfer.tk:6969000
udp://tracker.ilibr.org:6969/announce000
udp://tracker.ilibr.org:80/announce000
udp://tracker.opentrackr.org:1337/announce000
udp://zer0day.to:1337/announce000
udp://tracker.zer0day.to:1337/announce000
udp://p4p.arenabg.com:1337/announce000
udp://p4p.arenabg.ch:1337/announce000
udp://tracker.leechers-paradise.org:6969/announce000
udp://explodie.org:6969/announce000
udp://9.rarbg.to:2710/announce000
udp://eddie4.nl:6969/announce000
udp://9.rarbg.to:2770/announce000


File List: 





Comments
No comments still posted