Download The Secret Life of Pets 2 2019 720p WEB-DL x264 ESub [MW] torrent - GloDLS
Torrent Details For "The Secret Life of Pets 2 2019 720p WEB-DL x264 ESub [MW]"

The Secret Life of Pets 2 2019 720p WEB-DL x264 ESub [MW]

To download this torrent, you need a BitTorrent client: Vuze or BTGuard
Download this torrent
Download using Magnet Link

Health:
Seeds: 204
Leechers: 111
Completed: 1,010 
Last Checked: 14-08-2019 10:07:29

Uploader Reputation points : 6070
External: Torrent






Write a Review for the Uploader:   20   Say Thanks with one good review:
Share on Facebook


Details
Name:The Secret Life of Pets 2 2019 720p WEB-DL x264 ESub [MW]
Description:




General
Format                                   : Matroska
Format version                           : Version 4
File size                                : 808 MiB
Duration                                 : 1 h 26 min
Overall bit rate                         : 1 312 kb/s

Video
ID                                       : 1
Format                                   : AVC
Format/Info                              : Advanced Video Codec
Format profile                           : [email protected]
Format settings                          : CABAC / 4 Ref Frames
Format settings, CABAC                   : Yes
Format settings, Reference frames        : 4 frames
Codec ID                                 : V_MPEG4/ISO/AVC
Duration                                 : 1 h 26 min
Bit rate                                 : 1 200 kb/s
Width                                    : 1 280 pixels
Height                                   : 692 pixels
Display aspect ratio                     : 1.85:1
Frame rate mode                          : Constant
Frame rate                               : 23.976 (24000/1001) FPS
Color space                              : YUV
Chroma subsampling                       : 4:2:0
Bit depth                                : 8 bits
Scan type                                : Progressive
Bits/(Pixel*Frame)                       : 0.057
Stream size                              : 727 MiB (90%)
Writing library                          : x264 core 157 r2935 545de2f

Audio
ID                                       : 2
Format                                   : AAC LC
Codec ID                                 : A_AAC-2
Duration                                 : 1 h 26 min
Bit rate                                 : 128 kb/s
Channel(s)                               : 2 channels
Channel layout                           : L R
Sampling rate                            : 48.0 kHz
Frame rate                               : 46.875 FPS (1024 SPF)
Compression mode                         : Lossy
Stream size                              : 79.1 MiB (10%)
Language                                 : English
Default                                  : Yes
Forced                                   : No

Text
ID                                       : 3
Format                                   : UTF-8
Codec ID                                 : S_TEXT/UTF8
Codec ID/Info                            : UTF-8 Plain Text
Duration                                 : 1 h 25 min
Bit rate                                 : 53 b/s
Count of elements                        : 1324
Stream size                              : 33.3 KiB (0%)
Language                                 : English
Default                                  : Yes
Forced                                   : No


Click To View Image

https://pichub.site/image/hMrxT
https://pichub.site/image/hM5mZ
https://pichub.site/image/hM2ED
https://pichub.site/image/hMlsg
https://pichub.site/image/hMPaI
https://pichub.site/image/hMXzX

YouTube Video:
Category:Movies
Language:English  English
Total Size:807.79 MB
Info Hash:6D55817F3A97974C70779C4B193C61FDBD4AF56D
Added By:MovieFreak Verified UploaderMovie Pirate
Date Added:2019-08-13 23:46:28
Torrent Status:Torrent Verified


Ratings:Not Yet Rated (Log in to rate it)


Tracker:
udp://tracker.openbittorrent.com:80/announce

This Torrent also has backup trackers
URLSeedersLeechersCompleted
udp://tracker.openbittorrent.com:80/announce25910
udp://tracker.opentrackr.org:1337/announce1912120
udp://tracker.coppersurfer.tk:6969/announce3012163
udp://tracker.leechers-paradise.org:6969/announce2317119
udp://tracker.internetwarriors.net:1337/announce13455
udp://tracker.opentrackr.org:1337/announce1912120
udp://9.rarbg.to:2750/announce187136
udp://exodus.desync.com:6969/announce216104
udp://tracker1.itzmx.com:8080/announce000
udp://explodie.org:6969/announce12464
http://tracker3.itzmx.com:6961/announce122351
udp://tracker.port443.xyz:6969/announce000
udp://tracker.torrent.eu.org:451/announce12568


File List: 





Comments
No comments still posted