Login
Username:
Password:
Remember Me:
[Signup]
[Recover Account]
Friends
BTScene
Friendly site

Ale Torrenty Team
Friendly site

Anime RG
Friendly site

KaranPC
Friendly site

P2PDL.com
Friendly site

Free Tutorials & Courses
Friendly site
Torrent Details For "The Son of Bigfoot.2017.1080p.HDrip.X264.AC3.MutzNutz"

The Son of Bigfoot.2017.1080p.HDrip.X264.AC3.MutzNutz

To download this torrent, you need a BitTorrent client: Vuze or BTGuard
Download this torrent
Download using Magnet Link

Direct Download - no client needed

Download Faster - High Speed Download

Health:
Seeds: 206
Leechers: 384
Completed: 355 
Last Checked: 15-11-2017 09:53:41

Uploader Reputation points : 123802
External: Torrent




Write a Review for the Uploader:   60   Say Thanks with one good review:
Share on Facebook


Details
Name:The Son of Bigfoot.2017.1080p.HDrip.X264.AC3.MutzNutz
Description:
The Son of Bigfoot.2017.1080p.HDrip.X264.AC3.MutzNutz

ImDb: http://www.imdb.com/title/tt5715410



Complete name                            : The Son of Bigfoot.2017.1080p.HDrip.X264.AC3.MutzNutz.mkv
Format                                   : Matroska
Format version                           : Version 2
File size                                : 2.10 GiB
Duration                                 : 1 h 31 min
Overall bit rate                         : 3 272 kb/s
Encoded date                             : UTC 2017-11-14 22:45:57
Writing application                      : mkvmerge v7.7.0 ('Six Voices') 32bit built on Feb 28 2015 23:23:00
Writing library                          : libebml v1.3.1 + libmatroska v1.4.2

Video
ID                                       : 1
Format                                   : AVC
Format/Info                              : Advanced Video Codec
Format profile                           : [email protected]
Format settings, CABAC                   : Yes
Format settings, ReFrames                : 4 frames
Codec ID                                 : V_MPEG4/ISO/AVC
Duration                                 : 1 h 31 min
Bit rate                                 : 2 824 kb/s
Width                                    : 1 904 pixels
Height                                   : 784 pixels
Display aspect ratio                     : 2.40:1
Original display aspect ratio            : 2.40:1
Frame rate mode                          : Constant
Frame rate                               : 23.976 (24000/1001) FPS
Color space                              : YUV
Chroma subsampling                       : 4:2:0
Bit depth                                : 8 bits
Scan type                                : Progressive
Bits/(Pixel*Frame)                       : 0.079
Stream size                              : 1.81 GiB (86%)
Writing library                          : x264 core 146 r2538 121396c
Encoding settings                        : cabac=1 / ref=3 / deblock=1:-1:-1 / analyse=0x3:0x113 / me=hex / subme=7 / psy=1 / psy_rd=1.00:0.15 / mixed_ref=1 / me_range=16 / chroma_me=1 / trellis=2 / 8x8dct=1 / cqm=0 / deadzone=21,11 / fast_pskip=1 / chroma_qp_offset=-3 / threads=6 / lookahead_threads=1 / sliced_threads=0 / nr=0 / decimate=1 / interlaced=0 / bluray_compat=0 / constrained_intra=0 / bframes=3 / b_pyramid=2 / b_adapt=1 / b_bias=0 / direct=1 / weightb=1 / open_gop=0 / weightp=2 / keyint=240 / keyint_min=23 / scenecut=40 / intra_refresh=0 / rc_lookahead=40 / rc=2pass / mbtree=1 / bitrate=2824 / ratetol=1.0 / qcomp=0.80 / qpmin=0 / qpmax=69 / qpstep=4 / cplxblur=20.0 / qblur=0.5 / vbv_maxrate=62500 / vbv_bufsize=78125 / nal_hrd=none / filler=0 / ip_ratio=1.40 / aq=1:1.00
Default                                  : Yes
Forced                                   : No

Audio
ID                                       : 2
Format                                   : AC-3
Format/Info                              : Audio Coding 3
Format settings, Endianness              : Big
Codec ID                                 : A_AC3
Duration                                 : 1 h 31 min
Bit rate mode                            : Constant
Bit rate                                 : 448 kb/s
Channel(s)                               : 6 channels
Channel positions                        : Front: L C R, Side: L R, LFE
Sampling rate                            : 48.0 kHz
Frame rate                               : 31.250 FPS (1536 spf)
Bit depth                                : 16 bits
Compression mode                         : Lossy
Stream size                              : 294 MiB (14%)
Language                                 : English
Service kind                             : Complete Main
Default                                  : Yes
Forced                                   : No






Click To View Screenshot

Click To View Screenshot

Click To View Screenshot
YouTube Video:
Category:Movies
Language:English  English
Total Size:2.10 GB
Info Hash:004CC3AF140FB6DEF462CC08675B3490D03A95A7
Added By:Simmoncelli VIPMovie Pirate
Date Added:14-11-2017 23:51:39
Torrent Status:Torrent Verified


Ratings:Not Yet Rated (Log in to rate it)


Tracker:
udp://tracker.coppersurfer.tk:6969/announce

This Torrent also has backup trackers
URLSeedersLeechersCompleted
udp://tracker.coppersurfer.tk:6969/announce142625
udp://tracker.pirateparty.gr:6969/announce142625
udp://shadowshq.yi.org:6969/announce163229
udp://eddie4.nl:6969/announce163229
udp://tracker.leechers-paradise.org:6969/announce163229
udp://tracker.opentrackr.org:1337/announce143031
udp://p4p.arenabg.ch:1337/announce152818
udp://p4p.arenabg.com:1337/announce152818
udp://9.rarbg.me:2710/announce162435
udp://9.rarbg.to:2710/announce162435
udp://ipv4.tracker.harry.lu:80/announce152816
udp://tracker.grepler.com:6969/announce000
udp://public.popcorn-tracker.org:6969/announce112320
udp://tracker.opentrackr.org:1337/announce143031
udp://tracker.zer0day.to:1337/announce142114


File List: 





Comments
No comments still posted