Login
Username:
Password:
Remember Me:
[Signup]
[Recover Account]
Friends
BTScene
Friendly site

Ale Torrenty Team
Friendly site

Anime RG
Friendly site

KaranPC
Friendly site

P2PDL.com
Friendly site

Free Tutorials & Courses
Friendly site
Torrent Details For "The Son of Bigfoot.2017.720p.WEB-DL.X264.AC3-EVO"

The Son of Bigfoot.2017.720p.WEB-DL.X264.AC3-EVO

To download this torrent, you need a BitTorrent client: Vuze or BTGuard
Download this torrent
Download using Magnet Link

Direct Download - no client needed

Download Faster - High Speed Download

Health:
Seeds: 0
Leechers: 0
Completed:
Last Checked: 14-11-2017 19:01:06

Uploader Reputation points : 123802
External: Torrent




Write a Review for the Uploader:   60   Say Thanks with one good review:
Share on Facebook


Details
Name:The Son of Bigfoot.2017.720p.WEB-DL.X264.AC3-EVO
Description:
The Son of Bigfoot.2017.720p.WEB-DL.X264.AC3-EVO

ImDb: http://www.imdb.com/title/tt5715410



Complete name                            : The Son of Bigfoot.2017.720p.WEB-DL.X264.AC3-EVO.mkv
Format                                   : Matroska
Format version                           : Version 4 / Version 2
File size                                : 2.39 GiB
Duration                                 : 1 h 31 min
Overall bit rate                         : 3 730 kb/s
Movie name                               : EVO
Encoded date                             : UTC 2017-11-14 14:58:06
Writing application                      : mkvmerge v6.7.0 ('Back to the Ground') 64bit built on Jan  8 2014 15:10:52
Writing library                          : libebml v1.3.0 + libmatroska v1.4.1

Video
ID                                       : 1
Format                                   : AVC
Format/Info                              : Advanced Video Codec
Format profile                           : [email protected]
Format settings, CABAC                   : Yes
Format settings, ReFrames                : 4 frames
Codec ID                                 : V_MPEG4/ISO/AVC
Duration                                 : 1 h 31 min
Bit rate                                 : 3 400 kb/s
Width                                    : 1 280 pixels
Height                                   : 536 pixels
Display aspect ratio                     : 2.40:1
Frame rate mode                          : Constant
Frame rate                               : 23.976 (24000/1001) FPS
Color space                              : YUV
Chroma subsampling                       : 4:2:0
Bit depth                                : 8 bits
Scan type                                : Progressive
Bits/(Pixel*Frame)                       : 0.207
Stream size                              : 2.10 GiB (88%)
Writing library                          : x264 core 142 r2479 dd79a61
Encoding settings                        : cabac=1 / ref=1 / deblock=1:0:0 / analyse=0x3:0x113 / me=hex / subme=2 / psy=1 / psy_rd=1.00:0.00 / mixed_ref=0 / me_range=16 / chroma_me=1 / trellis=0 / 8x8dct=1 / cqm=0 / deadzone=21,11 / fast_pskip=1 / chroma_qp_offset=0 / threads=12 / lookahead_threads=4 / sliced_threads=0 / nr=0 / decimate=1 / interlaced=0 / bluray_compat=0 / constrained_intra=0 / bframes=3 / b_pyramid=2 / b_adapt=1 / b_bias=0 / direct=1 / weightb=1 / open_gop=0 / weightp=1 / keyint=240 / keyint_min=24 / scenecut=40 / intra_refresh=0 / rc_lookahead=10 / rc=abr / mbtree=1 / bitrate=3400 / ratetol=1.0 / qcomp=0.60 / qpmin=0 / qpmax=69 / qpstep=4 / vbv_maxrate=62500 / vbv_bufsize=78125 / nal_hrd=none / filler=0 / ip_ratio=1.40 / aq=1:1.00
Default                                  : Yes
Forced                                   : No
Color range                              : Limited
Color primaries                          : BT.709
Transfer characteristics                 : BT.709
Matrix coefficients                      : BT.709

Audio
ID                                       : 2
Format                                   : AC-3
Format/Info                              : Audio Coding 3
Format settings, Endianness              : Big
Codec ID                                 : A_AC3
Duration                                 : 1 h 31 min
Bit rate mode                            : Constant
Bit rate                                 : 384 kb/s
Channel(s)                               : 6 channels
Channel positions                        : Front: L C R, Side: L R, LFE
Sampling rate                            : 48.0 kHz
Frame rate                               : 31.250 FPS (1536 spf)
Bit depth                                : 16 bits
Compression mode                         : Lossy
Delay relative to video                  : -5 ms
Stream size                              : 252 MiB (10%)
Title                                    : Surround
Language                                 : English
Service kind                             : Complete Main
Default                                  : Yes
Forced                                   : No

Menu
00:00:00.000                             : :1
00:05:51.726                             : :2
00:12:17.153                             : :3
00:17:55.032                             : :4
00:22:50.118                             : :5
00:27:17.928                             : :6
00:34:04.751                             : :7
00:41:53.719                             : :8
00:46:30.954                             : :9
00:50:29.776                             : :10
00:57:29.446                             : :11
01:02:09.934                             : :12
01:09:03.264                             : :13
01:14:14.241                             : :14
01:22:58.557                             : :15
01:26:11.958                             : :16






Click To View Screenshot

Click To View Screenshot

Click To View Screenshot
YouTube Video:
Category:Movies
Language:English  English
Total Size:2.39 GB
Info Hash:837BB8476342A608D1A314E504D7B86536C68292
Added By:Simmoncelli VIPMovie Pirate
Date Added:14-11-2017 19:01:06
Torrent Status:Torrent Verified


Ratings:Not Yet Rated (Log in to rate it)


Tracker:
udp://tracker.coppersurfer.tk:6969/announce

This Torrent also has backup trackers
URLSeedersLeechersCompleted
udp://tracker.coppersurfer.tk:6969/announce000
udp://tracker.pirateparty.gr:6969/announce000
udp://shadowshq.yi.org:6969/announce000
udp://eddie4.nl:6969/announce000
udp://tracker.leechers-paradise.org:6969/announce000
udp://tracker.opentrackr.org:1337/announce000
udp://p4p.arenabg.ch:1337/announce000
udp://p4p.arenabg.com:1337/announce000
udp://9.rarbg.me:2710/announce000
udp://9.rarbg.to:2710/announce000
udp://ipv4.tracker.harry.lu:80/announce000
udp://tracker.grepler.com:6969/announce000
udp://public.popcorn-tracker.org:6969/announce000
udp://tracker.opentrackr.org:1337/announce000
udp://tracker.zer0day.to:1337/announce000


File List: 





Comments
No comments still posted