Login
Username:
Password:
Remember Me:
[Signup]
[Recover Account]
Friends
BTScene
Friendly site

Free Courses Online
Friendly site

Anime RG
Friendly site

KaranPC
Friendly site

P2PDL.com
Friendly site

Free Tutorials & Courses
Friendly site
Torrent Details For "The Wrong Mans - 720p - Season 1 Complete - Maxillion - [GloTV]"

The Wrong Mans - 720p - Season 1 Complete - Maxillion - [GloTV]

To download this torrent, you need a BitTorrent client: Vuze or BTGuard
Download this torrent
Download using Magnet Link

Direct Download - no client needed

Download Faster - High Speed Download

Health:
Seeds: 3
Leechers: 0
Completed:
Last Checked: 15-06-2018 20:37:53

Uploader Reputation points : 2408
External: Torrent




Write a Review for the Uploader:   50   Say Thanks with one good review:
Share on Facebook


Details
Name:The Wrong Mans - 720p - Season 1 Complete - Maxillion - [GloTV]
Description:


Stars:
Mathew Baynton, James Corden, Sarah Solemani

Storyline:

From actor/writer duo James Corden and Mathew Baynton, The Wrong Mans series centers on Sam Pinkett and Phil Bourne, office workers for Berkshire County Council, who have their menial existence turned upside-down by a chance phone-call and a case of mistaken identity. After being sole witness to a car crash on a desolate country road, Sam answers an abandoned mobile telephone and hears a message that was clearly not meant for him: "If you are not here by 5 o'clock, we will kill your wife". Encouraged by office mail-room delivery boy Phil that they can be the heroes of the hour, the duo soon find themselves plunged into a deadly kidnap situation. The Wrong Mans involves a world of unexpected international conspiracy and intrigue, with the mysterious Scarlett and Stevens and the enigmatic secret agent Walker at the heart of the unfurling chaos. Sam and Phil must dodge bullets and escape explosions in their quest to save not just themselves, but their loved ones and ultimately their ...









SCREENSHOTS:


Screens

Screens

Screens

Screens

Screens

Screens


Format                                   : Matroska
Format version                           : Version 2
File size                                : 326 MiB
Duration                                 : 28mn 44s
Overall bit rate                         : 1 586 Kbps
Writing application                      : HandBrake rev5474
Writing library                          : libmkv 0.6.5.1
TITLE                                    : The Wrong Mans - S01E03 - Dead Mans - 720p -
ARTIST                                   : Maxillion
SUMMARY                                  : A Maxillion Encode

Video
ID                                       : 1
Format                                   : AVC
Format/Info                              : Advanced Video Codec
Format profile                           : [email protected]
Format settings, CABAC                   : Yes
Format settings, ReFrames                : 4 frames
Codec ID                                 : V_MPEG4/ISO/AVC
Duration                                 : 28mn 44s
Bit rate                                 : 1 362 Kbps
Width                                    : 1 280 pixels
Height                                   : 720 pixels
Display aspect ratio                     : 16:9
Frame rate mode                          : Constant
Frame rate                               : 25.000 fps
Color space                              : YUV
Chroma subsampling                       : 4:2:0
Bit depth                                : 8 bits
Scan type                                : Progressive
Bits/(Pixel*Frame)                       : 0.059
Stream size                              : 280 MiB (86%)
Writing library                          : x264 core 142 r2389 956c8d8
Encoding settings                        : cabac=1 / ref=1 / deblock=1:0:0 / analyse=0x1:0x111 / me=hex / subme=2 / psy=1 / psy_rd=1.00:0.00 / mixed_ref=0 / me_range=16 / chroma_me=1 / trellis=0 / 8x8dct=0 / cqm=0 / deadzone=21,11 / fast_pskip=1 / chroma_qp_offset=0 / threads=12 / lookahead_threads=4 / sliced_threads=0 / nr=0 / decimate=1 / interlaced=0 / bluray_compat=0 / constrained_intra=0 / bframes=3 / b_pyramid=2 / b_adapt=1 / b_bias=0 / direct=1 / weightb=1 / open_gop=0 / weightp=1 / keyint=250 / keyint_min=25 / scenecut=40 / intra_refresh=0 / rc_lookahead=10 / rc=crf / mbtree=1 / crf=20.0 / qcomp=0.60 / qpmin=0 / qpmax=69 / qpstep=4 / vbv_maxrate=20000 / vbv_bufsize=25000 / crf_max=0.0 / nal_hrd=none / filler=0 / ip_ratio=1.40 / aq=1:1.00
Language                                 : English
Default                                  : Yes
Forced                                   : No
Color primaries                          : BT.709
Transfer characteristics                 : BT.709
Matrix coefficients                      : BT.709

Audio
ID                                       : 2
Format                                   : AC-3
Format/Info                              : Audio Coding 3
Mode extension                           : CM (complete main)
Format settings, Endianness              : Big
Codec ID                                 : A_AC3
Duration                                 : 28mn 44s
Bit rate mode                            : Constant
Bit rate                                 : 192 Kbps
Channel(s)                               : 2 channels
Channel positions                        : Front: L R
Sampling rate                            : 32.0 KHz
Bit depth                                : 16 bits
Compression mode                         : Lossy
Stream size                              : 39.5 MiB (12%)
Default                                  : Yes
Forced                                   : No
YouTube Video:
Category:Packs
Language:English  English
Total Size:1.76 GB
Info Hash:23E51A4F3790807A436C61A5A478340F3ADCB0DA
Added By:Maxillion
Date Added:25-12-2014 21:20:33
Torrent Status:Unverified Torrent


Ratings:Not Yet Rated (Log in to rate it)


Tracker:
udp://tracker.openbittorrent.com:80/announce

This Torrent also has backup trackers
URLSeedersLeechersCompleted
udp://tracker.openbittorrent.com:80/announce000
udp://ipv4.tracker.harry.lu:80/announce000
udp://9.rarbg.com:2710/announce301
udp://tracker.glotorrents.com:6969/announce000
udp://glotorrents.com:6969/announce000


File List: 





Comments

[Report] Posted: 25-12-2014 at 21:21:22
Maxillion

avatar

profile message
This TV show surprised me. Very funny and very well done. Highly recommended. Enjoy the show!  B)  :yahoo:  :dance:




[Report] Posted: 30-12-2014 at 00:59:06
Araka
0Oo.Peace.oO0
avatar

profile message
Agreed. The 1st 5 mins were hilarious! Am hooked now. Love the mail delivery guy :) :!
Be Aware