Login
Username:
Password:
Remember Me:
[Signup]
[Recover Account]
Friends
BTScene
Friendly site

Free Courses Online
Friendly site

Anime RG
Friendly site

KaranPC
Friendly site

P2PDL.com
Friendly site

Free Tutorials & Courses
Friendly site
Torrent Details For "The Thundermans S04E17 Can't Hardly Date 1080p WEB-DL AAC2.0 H.264-LAZY"

The Thundermans S04E17 Can't Hardly Date 1080p WEB-DL AAC2.0 H.264-LAZY

To download this torrent, you need a BitTorrent client: Vuze or BTGuard
Download this torrent
Download using Magnet Link

Direct Download - no client needed

Download Faster - High Speed Download

Health:
Seeds: 0
Leechers: 6
Completed:
Last Checked: 29-01-2018 06:28:31

Uploader Reputation points : 414
External: Torrent




Write a Review for the Uploader:   5   Say Thanks with one good review:
Share on Facebook
TV Info

The Thundermans

Meet The Thundermans, a typical suburban family that happens to have astounding superpowers. At the center of the action are the 14-year-old Thunderman twins, who share the same bathroom, the same school, and the same annoying little siblings. Their only difference? The sister is a super student with a super sunny disposition who super looks forward to being a superhero someday, and her twin brother is a super villain.



Details
Name:The Thundermans S04E17 Can't Hardly Date 1080p WEB-DL AAC2.0 H.264-LAZY
Description:
The Thundermans:

Video
ID                                       : 2
Format                                   : AVC
Format/Info                              : Advanced Video Codec
Format profile                           : [email protected]
Format settings, CABAC                   : Yes
Format settings, RefFrames               : 4 frames
Codec ID                                 : V_MPEG4/ISO/AVC
Duration                                 : 22 min 41 s
Bit rate                                 : 5 177 kb/s
Width                                    : 1 916 pixels
Height                                   : 1 076 pixels
Display aspect ratio                     : 16:9
Frame rate mode                          : Constant
Frame rate                               : 23.976 (24000/1001) FPS
Color space                              : YUV
Chroma subsampling                       : 4:2:0
Bit depth                                : 8 bits
Scan type                                : Progressive
Bits/(Pixel*Frame)                       : 0.105
Stream size                              : 840 MiB (98%)
Language                                 : English
Default                                  : Yes
Forced                                   : No
Color range                              : Limited
Color primaries                          : BT.709
Transfer characteristics                 : BT.709
Matrix coefficients                      : BT.709

Audio
ID                                       : 1
Format                                   : AAC
Format/Info                              : Advanced Audio Codec
Format profile                           : LC
Codec ID                                 : A_AAC
Duration                                 : 22 min 41 s
Bit rate                                 : 125 kb/s
Channel(s)                               : 2 channels
Channel positions                        : Front: L R
Sampling rate                            : 48.0 kHz
Frame rate                               : 46.875 FPS (1024 SPF)
Compression mode                         : Lossy
Delay relative to video                  : -42 ms
Stream size                              : 20.3 MiB (2%)
Language                                 : English
Default                                  : Yes
Forced                                   : No

Text
ID                                       : 3
Format                                   : UTF-8
Codec ID                                 : S_TEXT/UTF8
Codec ID/Info                            : UTF-8 Plain Text
Duration                                 : 22 min 15 s
Bit rate                                 : 139 b/s
Count of elements                        : 557
Stream size                              : 22.8 KiB (0%)
Language                                 : English
Default                                  : Yes
Forced                                   : No

Screenshots:
YouTube Video:   
Category:TV
Language:English  English
Total Size:861.11 MB
Info Hash:867D837FA005103C94E4B8A2AE8DAAB7F68ACD17
Added By:LazyRips Verified Uploader
Date Added:14-01-2018 10:12:47
Torrent Status:Torrent Verified


Ratings:Not Yet Rated (Log in to rate it)


Tracker:
udp://tracker.opentrackr.org:1337/announce

This Torrent also has backup trackers
URLSeedersLeechersCompleted
udp://tracker.opentrackr.org:1337/announce020
udp://tracker.coppersurfer.tk:6969/announce020
udp://9.rarbg.me:2730/announce020
http://glotorrents.pw:80/announce000
udp://tracker.istole.it:80/announce000
udp://tracker4.piratux.com:6969/announce000
udp://tracker.publicbt.com:80/announce000
udp://coppersurfer.tk:6969/announce000
udp://open.demonii.com:1337/announce000
udp://tracker.openbittorrent.com:80/announce000


File List: 





Comments
No comments still posted