Login
Username:
Password:
Remember Me:
[Signup]
[Recover Account]
Friends
BTScene
Friendly site

Free Courses Online
Friendly site

Anime RG
Friendly site

KaranPC
Friendly site

P2PDL.com
Friendly site

Free Tutorials & Courses
Friendly site
Torrent Details For "National Treasure (2004) 720p [Hindi Dubbed + English] HDRip x264 AAC ESub by Full4mo..."

National Treasure (2004) 720p [Hindi Dubbed + English] HDRip x264 AAC ESub by Full4mo...

To download this torrent, you need a BitTorrent client: Vuze or BTGuard
Download this torrent
Download using Magnet Link

Direct Download - no client needed

Download Faster - High Speed Download

Health:
Seeds: 435
Leechers: 416
Completed: 760 
Last Checked: 15-07-2018 09:13:01

Uploader Reputation points : 1694
External: Torrent



BTGuard - BitTorrent Anonymously


Write a Review for the Uploader:   0   Say Thanks with one good review:
Share on Facebook


Details
Name:National Treasure (2004) 720p [Hindi Dubbed + English] HDRip x264 AAC ESub by Full4mo...
Description:


General
Complete name                  : National Treasure (2004) 720p [Hindi Dubbed + English] HDRip x264 AAC ESub by Full4movies.mkv
Format                         : Matroska
Format version                 : Version 4 / Version 2
File size                      : 850 MiB
Duration                       : 2 h 11 min
Overall bit rate               : 906 kb/s
Movie name                     : www.Full4movies.co
Encoded date                   : UTC 2018-07-12 18:09:15
Writing application            : mkvmerge v8.1.0 ('Psychedelic Postcard') 32bit
Writing library                : libebml v1.3.1 + libmatroska v1.4.2

Video
ID                             : 1
Format                         : AVC
Format/Info                    : Advanced Video Codec
Format profile                 : [email protected]
Format settings, CABAC         : Yes
Format settings, RefFrames     : 12 frames
Codec ID                       : V_MPEG4/ISO/AVC
Duration                       : 2 h 11 min
Bit rate                       : 808 kb/s
Width                          : 1 280 pixels
Height                         : 532 pixels
Display aspect ratio           : 2.40:1
Frame rate mode                : Constant
Frame rate                     : 23.976 (24000/1001) FPS
Color space                    : YUV
Chroma subsampling             : 4:2:0
Bit depth                      : 8 bits
Scan type                      : Progressive
Bits/(Pixel*Frame)             : 0.049
Stream size                    : 757 MiB (89%)
Writing library                : x264 core 125 r2200 999b753
Language                       : English
Default                        : Yes
Forced                         : Yes

Audio #1
ID                             : 2
Format                         : AAC
Format/Info                    : Advanced Audio Codec
Format profile                 : LC
Codec ID                       : A_AAC
Duration                       : 2 h 1 min
Bit rate                       : 66.2 kb/s
Channel(s)                     : 2 channels
Channel positions              : Front: L R
Sampling rate                  : 44.1 kHz
Frame rate                     : 43.066 FPS (1024 SPF)
Compression mode               : Lossy
Stream size                    : 58.7 MiB (7%)
Language                       : Hindi
Default                        : Yes
Forced                         : Yes

Audio #2
ID                             : 3
Format                         : AAC
Format/Info                    : Advanced Audio Codec
Format profile                 : HE-AAC / LC
Codec ID                       : A_AAC
Duration                       : 2 h 1 min
Bit rate                       : 36.0 kb/s
Channel(s)                     : 2 channels
Channel positions              : Front: L R
Sampling rate                  : 48.0 kHz / 24.0 kHz
Frame rate                     : 23.438 FPS (1024 SPF)
Compression mode               : Lossy
Stream size                    : 31.4 MiB (4%)
Language                       : English
Default                        : No
Forced                         : No

Text
ID                             : 4
Format                         : UTF-8
Codec ID                       : S_TEXT/UTF8
Codec ID/Info                  : UTF-8 Plain Text
Duration                       : 10 s 0 ms
Bit rate                       : 47 b/s
Count of elements              : 2
Stream size                    : 59.0 Bytes (0%)
Default                        : Yes
Forced                         : Yes

Screen Shoots
YouTube Video:   
Category:Movies
Language:Hindi  Hindi
Total Size:849.69 MB
Info Hash:8416F896DD5F9755E529B146B10B25072A9D94A6
Added By:india4movie Verified Uploader
Date Added:14-07-2018 10:41:02
Torrent Status:Torrent Verified


Ratings:Not Yet Rated (Log in to rate it)


Tracker:
udp://tracker.coppersurfer.tk:6969/announce

This Torrent also has backup trackers
URLSeedersLeechersCompleted
udp://tracker.coppersurfer.tk:6969/announce4145111
udp://tracker.opentrackr.org:1337/announce414485
udp://9.rarbg.me:2710/announce393551
udp://tracker.torrent.eu.org:451/announce433642
udp://open.stealth.si:80/announce333133
udp://public.popcorn-tracker.org:6969/announce000
udp://p4p.arenabg.ch:1337/announce000
udp://tracker.zer0day.to:1337/announce000
udp://tracker.pirateparty.gr:6969/announce4145111
udp://tracker.leechers-paradise.org:6969/announce353571
udp://tracker.tiny-vps.com:6969/announce423847
udp://bt.firebit.co.uk:6969/announce353571
udp://inferno.demonoid.pw:3397/announce503767
udp://shadowshq.yi.org:6969/announce353571
udp://9.rarbg.to:2780/announce000


File List: 





Comments
No comments still posted