Login
Username:
Password:
Remember Me:
[Signup]
[Recover Account]
Friends
BTScene
Friendly site

Free Courses Online
Friendly site

Anime RG
Friendly site

KaranPC
Friendly site

P2PDL.com
Friendly site

Free Tutorials & Courses
Friendly site
Torrent Details For "7 Hours to Go Hindi (2016) 720p HDRip x264 AAC by Full4movies"

7 Hours to Go Hindi (2016) 720p HDRip x264 AAC by Full4movies

To download this torrent, you need a BitTorrent client: Vuze or BTGuard
Download this torrent
Download using Magnet Link

Direct Download - no client needed

Download Faster - High Speed Download

Health:
Seeds: 258
Leechers: 238
Completed: 624 
Last Checked: 12-08-2018 14:20:14

Uploader Reputation points : 1574
External: Torrent




Write a Review for the Uploader:   0   Say Thanks with one good review:
Share on Facebook


Details
Name:7 Hours to Go Hindi (2016) 720p HDRip x264 AAC by Full4movies
Description:


General
Complete name                  : 7 Hours to Go Hindi (2016) 720p HDRip x264 AAC by Full4movies.mkv
Format                         : Matroska
Format version                 : Version 4 / Version 2
File size                      : 850 MiB
Duration                       : 1 h 54 min
Overall bit rate               : 1 042 kb/s
Movie name                     : www.Full4movies.co
Encoded date                   : UTC 2018-08-09 13:14:12
Writing application            : mkvmerge v8.1.0 ('Psychedelic Postcard') 32bit
Writing library                : libebml v1.3.1 + libmatroska v1.4.2

Video
ID                             : 1
Format                         : AVC
Format/Info                    : Advanced Video Codec
Format profile                 : [email protected]
Format settings, CABAC         : Yes
Format settings, RefFrames     : 10 frames
Codec ID                       : V_MPEG4/ISO/AVC
Duration                       : 1 h 54 min
Bit rate                       : 880 kb/s
Width                          : 1 280 pixels
Height                         : 544 pixels
Display aspect ratio           : 2.35:1
Frame rate mode                : Constant
Frame rate                     : 23.976 (24000/1001) FPS
Color space                    : YUV
Chroma subsampling             : 4:2:0
Bit depth                      : 8 bits
Scan type                      : Progressive
Bits/(Pixel*Frame)             : 0.053
Stream size                    : 718 MiB (84%)
Writing library                : x264 core 142 r2479 dd79a61
Language                       : Hindi
Default                        : Yes
Forced                         : No
Color range                    : Limited
Color primaries                : BT.709
Transfer characteristics       : BT.709
Matrix coefficients            : BT.709

Audio
ID                             : 2
Format                         : AAC
Format/Info                    : Advanced Audio Codec
Format profile                 : LC
Codec ID                       : A_AAC
Duration                       : 1 h 54 min
Bit rate                       : 160 kb/s
Channel(s)                     : 2 channels
Channel positions              : Front: L R
Sampling rate                  : 48.0 kHz
Frame rate                     : 46.875 FPS (1024 SPF)
Compression mode               : Lossy
Delay relative to video        : -21 ms
Stream size                    : 130 MiB (15%)
Language                       : Hindi
Default                        : Yes
Forced                         : No

Screen Shoots
YouTube Video:   
Category:Movies
Language:Hindi  Hindi
Total Size:850.30 MB
Info Hash:E816A9E193EC3E9156E624AA9C3CAD05217D851E
Added By:india4movie Verified Uploader
Date Added:11-08-2018 07:56:46
Torrent Status:Torrent Verified


Ratings:Not Yet Rated (Log in to rate it)


Tracker:
udp://tracker.coppersurfer.tk:6969/announce

This Torrent also has backup trackers
URLSeedersLeechersCompleted
udp://tracker.coppersurfer.tk:6969/announce162488
udp://tracker.opentrackr.org:1337/announce251956
udp://9.rarbg.me:2710/announce191654
udp://tracker.torrent.eu.org:451/announce251975
udp://open.stealth.si:80/announce231840
udp://public.popcorn-tracker.org:6969/announce172030
udp://p4p.arenabg.ch:1337/announce000
udp://tracker.zer0day.to:1337/announce000
udp://tracker.pirateparty.gr:6969/announce162488
udp://tracker.leechers-paradise.org:6969/announce15131
udp://tracker.tiny-vps.com:6969/announce242054
udp://bt.firebit.co.uk:6969/announce15131
udp://inferno.demonoid.pw:3397/announce312382
udp://shadowshq.yi.org:6969/announce15131
udp://9.rarbg.to:2780/announce171654


File List: 





Comments
No comments still posted