Login
Username:
Password:
Remember Me:
[Signup]
[Recover Account]
Friends
BTScene
Friendly site

Free Courses Online
Friendly site

Anime RG
Friendly site

KaranPC
Friendly site

P2PDL.com
Friendly site

Free Tutorials & Courses
Friendly site
Torrent Details For "Unfriended Dark Web 2018 720p HC HDRip x264 [MW]"

Unfriended Dark Web 2018 720p HC HDRip x264 [MW]

To download this torrent, you need a BitTorrent client: Vuze or BTGuard
Download this torrent
Download using Magnet Link

Direct Download - no client needed

Download Faster - High Speed Download

Health:
Seeds: 348
Leechers: 170
Completed: 1,143 
Last Checked: 15-09-2018 07:28:09

Uploader Reputation points : 4476
External: Torrent



BTGuard - BitTorrent Anonymously


Write a Review for the Uploader:   20   Say Thanks with one good review:
Share on Facebook


Details
Name:Unfriended Dark Web 2018 720p HC HDRip x264 [MW]
Description:




General
Format                                   : Matroska
Format version                           : Version 4 / Version 2
File size                                : 1.04 GiB
Duration                                 : 1 h 32 min
Overall bit rate                         : 1 597 kb/s

Video
ID                                       : 1
Format                                   : AVC
Format/Info                              : Advanced Video Codec
Format profile                           : [email protected]
Format settings                          : CABAC / 4 Ref Frames
Format settings, CABAC                   : Yes
Format settings, RefFrames               : 4 frames
Codec ID                                 : V_MPEG4/ISO/AVC
Duration                                 : 1 h 32 min
Bit rate                                 : 1 400 kb/s
Width                                    : 1 280 pixels
Height                                   : 688 pixels
Display aspect ratio                     : 1.85:1
Frame rate mode                          : Constant
Frame rate                               : 23.000 FPS
Color space                              : YUV
Chroma subsampling                       : 4:2:0
Bit depth                                : 8 bits
Scan type                                : Progressive
Bits/(Pixel*Frame)                       : 0.069
Stream size                              : 932 MiB (88%)
Writing library                          : x264 core 155 r2901 7d0ff22
Default                                  : Yes
Forced                                   : No

Audio
ID                                       : 2
Format                                   : AAC
Format/Info                              : Advanced Audio Codec
Format profile                           : LC
Codec ID                                 : A_AAC-2
Duration                                 : 1 h 32 min
Bit rate                                 : 192 kb/s
Channel(s)                               : 2 channels
Channel positions                        : Front: L R
Sampling rate                            : 48.0 kHz
Frame rate                               : 46.875 FPS (1024 SPF)
Compression mode                         : Lossy
Delay relative to video                  : 72 ms
Stream size                              : 128 MiB (12%)
Language                                 : English
Default                                  : Yes
Forced                                   : No


https://pichub.site/image/EREtN
https://pichub.site/image/ERDMT
https://pichub.site/image/ERRnV
https://pichub.site/image/EROg0
https://pichub.site/image/ERISb
https://pichub.site/image/ERYHy

YouTube Video:
Category:Movies
Language:English  English
Total Size:1.04 GB
Info Hash:31D7AC5E715FC4651020541467E662E2153F4113
Added By:MovieFreak Verified UploaderMovie Pirate
Date Added:14-09-2018 22:39:07
Torrent Status:Torrent Verified


Ratings:Not Yet Rated (Log in to rate it)


Tracker:
udp://tracker.coppersurfer.tk:6969/announce

This Torrent also has backup trackers
URLSeedersLeechersCompleted
udp://tracker.coppersurfer.tk:6969/announce3716113
udp://tracker.pirateparty.gr:6969/announce3716113
udp://tracker.coppersurfer.tk:6969/announce3716113
udp://tracker.leechers-paradise.org:6969/announce3019110
udp://eddie4.nl:6969/announce3019110
udp://tracker.tiny-vps.com:6969/announce19437
udp://9.rarbg.me:2800/announce17888
udp://9.rarbg.to:2720/announce17888
udp://public.popcorn-tracker.org:6969/announce15839
udp://open.stealth.si:80/announce14527
udp://tracker.vanitycore.co:6969/announce14533
udp://tracker.opentrackr.org:1337/announce19852
udp://bt.firebit.co.uk:6969/announce3119110
udp://shadowshq.yi.org:6969/announce3119110


File List: 





Comments
No comments still posted