Download WandaVision (2021) S01E07 1080p 10bit English HDRip x264 (DD 5 1) AC3 ESub By Full4Movies mkv torrent - GloDLS
Login
Username:
Password:
Remember Me:
[Signup]
[Recover Account]
Friends
Angie Torrents
Friendly Site

Pirateiro
Friendly site

Free Courses Online
Friendly site

ETTV
Friendly site

ProStyleX
Friendly site

KaranPC
Friendly site

P2PDL.com
Friendly site

OneHack
Friendly site

IGGGames
Friendly site

Torrent Details For "WandaVision (2021) S01E07 1080p 10bit English HDRip x264 (DD 5 1) AC3 ESub By Full4Mo..."

WandaVision (2021) S01E07 1080p 10bit English HDRip x264 (DD 5 1) AC3 ESub By Full4Mo...

To download this torrent, you need a BitTorrent client: Vuze or BTGuard
Download this torrent
Download using Magnet Link

Health:
Seeds: 314
Leechers: 191
Completed: 471 
Last Checked: 20-02-2021 08:37:30

Uploader Reputation points : 5083
External: Torrent






Write a Review for the Uploader:   5   Say Thanks with one good review:
Share on Facebook


Details
Name:WandaVision (2021) S01E07 1080p 10bit English HDRip x264 (DD 5 1) AC3 ESub By Full4Mo...
Description:


Visit Us = https://www.full4movies.biz/



General
Complete name                  : WandaVision (2021) S01E07 1080p 10bit English HDRip x264 (DD 5.1) AC3 ESub By Full4Movies.mkv
Format                         : Matroska
Format version                 : Version 4
File size                      : 763 MiB
Duration                       : 34 min 44 s
Overall bit rate               : 3 072 kb/s
Encoded date                   : UTC 2021-02-20 04:41:31
Writing application            : mkvmerge v6.8.0
Writing library                : libebml v1.3.0 + libmatroska v1.4.1

Video
ID                             : 1
Format                         : HEVC
Format/Info                    : High Efficiency Video Coding
Format profile                 : [email protected]@Main
Codec ID                       : V_MPEGH/ISO/HEVC
Duration                       : 34 min 44 s
Bit rate                       : 2 627 kb/s
Width                          : 1 920 pixels
Height                         : 1 080 pixels
Display aspect ratio           : 16:9
Frame rate mode                : Constant
Frame rate                     : 23.976 (24000/1001) FPS
Color space                    : YUV
Chroma subsampling             : 4:2:0
Bit depth                      : 8 bits
Bits/(Pixel*Frame)             : 0.053
Stream size                    : 653 MiB (86%)
Default                        : Yes
Forced                         : No
Color range                    : Limited
Color primaries                : BT.709
Transfer characteristics       : BT.709
Matrix coefficients            : BT.709

Audio #1
ID                             : 2
Format                         : E-AC-3
Format/Info                    : Enhanced AC-3
Commercial name                : Dolby Digital Plus
Codec ID                       : A_EAC3
Duration                       : 34 min 44 s
Bit rate mode                  : Constant
Bit rate                       : 192 kb/s
Channel(s)                     : 6 channels
Channel layout                 : L R C LFE Ls Rs
Sampling rate                  : 48.0 kHz
Frame rate                     : 31.250 FPS (1536 SPF)
Compression mode               : Lossy
Stream size                    : 47.7 MiB (6%)
Language                       : English
Service kind                   : Complete Main
Default                        : Yes
Forced                         : No

Audio #2
ID                             : 3
Format                         : E-AC-3
Format/Info                    : Enhanced AC-3
Commercial name                : Dolby Digital Plus
Codec ID                       : A_EAC3
Duration                       : 34 min 44 s
Bit rate mode                  : Constant
Bit rate                       : 192 kb/s
Channel(s)                     : 6 channels
Channel layout                 : L R C LFE Ls Rs
Sampling rate                  : 48.0 kHz
Frame rate                     : 31.250 FPS (1536 SPF)
Compression mode               : Lossy
Stream size                    : 47.7 MiB (6%)
Language                       : Indonesian
Service kind                   : Complete Main
Default                        : No
Forced                         : No

Text #1
ID                             : 4
Format                         : UTF-8
Codec ID                       : S_TEXT/UTF8
Codec ID/Info                  : UTF-8 Plain Text
Title                          : ESub
Language                       : English
Default                        : No
Forced                         : No

Screen Shoots





YouTube Video:
Category:TV
Language:English  English
Total Size:763.35 MB
Info Hash:C069F38A858F27FC20C251930AFE6296311A8A66
Added By:india4movie Verified Uploader
Date Added:2021-02-20 13:51:57
Torrent Status:Torrent Verified


Ratings:Not Yet Rated (Log in to rate it)


Tracker:
udp://tracker.opentrackr.org:1337/announce

This Torrent also has backup trackers
URLSeedersLeechersCompleted
udp://tracker.opentrackr.org:1337/announce413175
udp://tracker.cyberia.is:6969/announce000
udp://9.rarbg.me:2980/announce271885
udp://open.stealth.si:80/announce281742
udp://exodus.desync.com:6969/announce261040
udp://tracker.moeking.me:6969/announce221336
udp://explodie.org:6969/announce19160
udp://tracker.openbittorrent.com:80/announce000
udp://inferno.demonoid.is:3391/announce241431
udp://tracker.torrent.eu.org:451/announce261341
udp://ipv4.tracker.harry.lu:80/announce18180
udp://tracker.uw0.xyz:6969/announce291541
udp://tracker.coppersurfer.tk:6969/announce000
udp://exodus.desync.com:6969/announce261040
udp://tracker.tiny-vps.com:6969/announce281640


File List: 





Comments
No comments still posted