Login
Username:
Password:
Remember Me:
[Signup]
[Recover Account]
Friends
BTScene
Friendly site

Ale Torrenty Team
Friendly site

Anime RG
Friendly site

KaranPC
Friendly site

P2PDL.com
Friendly site

Free Tutorials & Courses
Friendly site
Torrent Details For "War for the Planet of the Apes 2017 1080p WEB-DL DD 5 1 x264 ESubbed"

War for the Planet of the Apes 2017 1080p WEB-DL DD 5 1 x264 ESubbed

To download this torrent, you need a BitTorrent client: Vuze or BTGuard
Download this torrent
Download using Magnet Link

Direct Download - no client needed

Download Faster - High Speed Download

Health:
Seeds: 45
Leechers: 26
Completed: 5,148 
Last Checked: 02-12-2017 10:13:22

Uploader Reputation points : 1040
External: Torrent




Write a Review for the Uploader:   5   Say Thanks with one good review:
Share on Facebook


Details
Name:War for the Planet of the Apes 2017 1080p WEB-DL DD 5 1 x264 ESubbed
Description:


General
Format                                   : Matroska
Format version                           : Version 4 / Version 2
File size                                : 2.13 GiB
Duration                                 : 2 h 20 min
Overall bit rate                         : 2 180 kb/s

Video
ID                                       : 1
Format                                   : AVC
Format/Info                              : Advanced Video Codec
Format profile                           : [email protected]
Format settings                          : CABAC / 4 Ref Frames
Format settings, CABAC                   : Yes
Format settings, RefFrames               : 4 frames
Codec ID                                 : V_MPEG4/ISO/AVC
Bit rate                                 : 2 000 kb/s
Width                                    : 1 916 pixels
Height                                   : 796 pixels
Display aspect ratio                     : 2.40:1
Frame rate                               : 23.976 (23976/1000) FPS
Color space                              : YUV

Audio
ID                                       : 2
Format                                   : AC-3
Format/Info                              : Audio Coding 3
Codec ID                                 : A_AC3
Bit rate mode                            : Constant
Bit rate                                 : 192 kb/s
Channel(s)                               : 6 channels
Channel positions                        : Front: L C R, Side: L R, LFE
Sampling rate                            : 48.0 kHz
Frame rate                               : 31.250 FPS (1536 SPF)
Stream size                              : 192 MiB (9%)
Language                                 : English


Text
ID                                       : 3
Format                                   : UTF-8
Codec ID                                 : S_TEXT/UTF8
Codec ID/Info                            : UTF-8 Plain Text
Duration                                 : 2 h 8 min
Bit rate                                 : 16 b/s
Count of elements                        : 750
Stream size                              : 15.6 KiB (0%)
Default                                  : Yes
Forced                                   : No










YouTube Video:
Category:Movies
Language:English  English
Total Size:2.13 GB
Info Hash:A4F4A6BF30DB97B6E509D375F470A636566345A5
Added By:MovieFreak Verified UploaderMovie Pirate
Date Added:10-10-2017 10:42:09
Torrent Status:Torrent Verified


Ratings:Not Yet Rated (Log in to rate it)


Tracker:
http://ipv4.tracker.harry.lu/announce

This Torrent also has backup trackers
URLSeedersLeechersCompleted
http://ipv4.tracker.harry.lu/announce4324
http://ipv4.tracker.harry.lu:80/announce4324
http://t.nyaatracker.com/announce000
http://tracker.devil-torrents.pl:80/announce000
http://tracker.devil-torrents.pl/announce000
http://open.kickasstracker.com/announce440
https://open.kickasstracker.com:443/announce440
http://t.nyaatracker.com:80/announce000
udp://9.rarbg.me:2770/announce417
udp://9.rarbg.com:2740/announce417
udp://9.rarbg.to:2750/announce417
udp://tracker.coppersurfer.tk:6969/announce834,740
udp://tracker.leechers-paradise.org:6969/announce53339
udp://tracker.zer0day.to:1337/announce430
http://tracker.devil-torrents.pl/announce000


File List: 





Comments
No comments still posted