Download A Million Miles Away 2023 1080p WEB-HD x265 6CH-BH torrent - GloDLS
Login
Username:
Password:
Remember Me:
[Signup]
[Recover Account]
Friends
Angie Torrents
Friendly Site

Get Into Way
Friendly site

Free Courses Online
Friendly site

KaranPC
Friendly site

OneHack
Friendly site

IGGGames
Friendly site

Torrent Details For "A Million Miles Away 2023 1080p WEB-HD x265 6CH-BH"

A Million Miles Away 2023 1080p WEB-HD x265 6CH-BH

To download this torrent, you need a BitTorrent client: Vuze or BTGuard
Download this torrent
Download using Magnet Link

Health:
Seeds: 1
Leechers: 0
Completed:
Last Checked: 18-09-2023 19:55:55

Uploader Reputation points : 31132





Write a Review for the Uploader:   45   Say Thanks with one good review:
Share on Facebook


Details
Name:A Million Miles Away 2023 1080p WEB-HD x265 6CH-BH
Description:


A.Million.Miles.Away.2023.1080p.WEB-HD.x265.6CH-BH



Video
ID                                       : 1
Format                                   : HEVC
Format/Info                              : High Efficiency Video Coding
Format profile                           : Main 10@L4@High
Codec ID                                 : V_MPEGH/ISO/HEVC
Duration                                 : 2 h 2 min
Bit rate                                 : 1 669 kb/s
Width                                    : 1 920 pixels
Height                                   : 1 040 pixels
Display aspect ratio                     : 1.85:1
Original display aspect ratio            : 1.85:1
Frame rate mode                          : Constant
Frame rate                               : 24.000 FPS
Color space                              : YUV


Audio
ID                                       : 2
Format                                   : AAC LC SBR
Format/Info                              : Advanced Audio Codec Low Complexity with Spectral Band Replication
Commercial name                          : HE-AAC
Format settings                          : Explicit
Codec ID                                 : A_AAC-2
Duration                                 : 2 h 2 min
Bit rate                                 : 207 kb/s
Channel(s)                               : 6 channels
Channel layout                           : C L R Ls Rs LFE
Sampling rate                            : 48.0 kHz
Frame rate                               : 23.438 FPS (2048 SPF)
Compression mode                         : Lossy
Delay relative to video                  : 40 ms
Stream size                              : 181 MiB (11%)
Language                                 : English
Default                                  : No
Forced                                   : No

Text #1
ID                                       : 3
Format                                   : UTF-8
Codec ID                                 : S_TEXT/UTF8
Codec ID/Info                            : UTF-8 Plain Text
Duration                                 : 1 h 46 min
Bit rate                                 : 6 b/s
Count of elements                        : 229
Stream size                              : 5.37 KiB (0%)
Language                                 : English
Default                                  : No
Forced                                   : Yes

Text #2
ID                                       : 4
Format                                   : UTF-8
Codec ID                                 : S_TEXT/UTF8
Codec ID/Info                            : UTF-8 Plain Text
Duration                                 : 1 h 51 min
Bit rate                                 : 58 b/s
Count of elements                        : 1536
Stream size                              : 47.4 KiB (0%)
Language                                 : English
Default                                  : No
Forced                                   : No

Text #3
ID                                       : 5
Format                                   : UTF-8
Codec ID                                 : S_TEXT/UTF8
Codec ID/Info                            : UTF-8 Plain Text
Duration                                 : 2 h 0 min
Bit rate                                 : 65 b/s
Count of elements                        : 1845
Stream size                              : 57.8 KiB (0%)
Language                                 : English
Default                                  : No
Forced                                   : No

Text #4
ID                                       : 6
Format                                   : UTF-8
Codec ID                                 : S_TEXT/UTF8
Codec ID/Info                            : UTF-8 Plain Text
Duration                                 : 2 h 0 min
Bit rate                                 : 76 b/s
Count of elements                        : 1321
Stream size                              : 67.6 KiB (0%)
Language                                 : Arabic
Default                                  : No
Forced                                   : No

Text #5
ID                                       : 7
Format                                   : UTF-8
Codec ID                                 : S_TEXT/UTF8
Codec ID/Info                            : UTF-8 Plain Text
Duration                                 : 2 h 0 min
Bit rate                                 : 40 b/s
Count of elements                        : 1146
Stream size                              : 36.1 KiB (0%)
Language                                 : Spanish
Default                                  : No
Forced                                   : No

Text #6
ID                                       : 8
Format                                   : UTF-8
Codec ID                                 : S_TEXT/UTF8
Codec ID/Info                            : UTF-8 Plain Text
Duration                                 : 2 h 0 min
Bit rate                                 : 42 b/s
Count of elements                        : 1146
Stream size                              : 37.7 KiB (0%)
Language                                 : Spanish
Default                                  : No
Forced                                   : No

Text #7
ID                                       : 9
Format                                   : UTF-8
Codec ID                                 : S_TEXT/UTF8
Codec ID/Info                            : UTF-8 Plain Text
Duration                                 : 2 h 0 min
Bit rate                                 : 46 b/s
Count of elements                        : 1316
Stream size                              : 40.6 KiB (0%)
Language                                 : Indonesian
Default                                  : No
Forced                                   : No

Screens:






YouTube Video:
Category:Movies
Language:English  English
Total Size:1.60 GB
Info Hash:290D8E0E131EFDE1EF0238A7EB9AF2654E55E473
Added By:Radioactive Verified UploaderMovie PirateVIP
Date Added:2023-09-19 02:55:54
Torrent Status:Torrent Verified


Ratings:Not Yet Rated (Log in to rate it)


Tracker:
udp://tracker.opentrackr.org:1337/announce

This Torrent also has backup trackers
URLSeedersLeechersCompleted
udp://tracker.opentrackr.org:1337/announce000
udp://exodus.desync.com:6969/announce000
udp://9.rarbg.me:2970/announce000
udp://tracker.opentrackr.org:1337/announce000
udp://tracker.tiny-vps.com:6969/announce000
udp://tracker.internetwarriors.net:1337/announce000
udp://opentor.org:2710/announce000
udp://tracker.torrent.eu.org:451/announce000
udp://explodie.org:6969/announce000
udp://tracker.moeking.me:6969/announce000
udp://tracker.cyberia.is:6969/announce000
udp://9.rarbg.me:2980/announce000
udp://9.rarbg.to:2940/announce000
udp://tracker.uw0.xyz:6969/announce000
udp://tracker.openbittorrent.com:1337/announce000


File List: 





Comments
No comments still posted