Download A Quiet Place Part II 2020 1080p BluRay ENG LATINO HINDI DD5 1 H264-BEN THE MEN torrent - GloDLS
Torrent Details For "A Quiet Place Part II 2020 1080p BluRay ENG LATINO HINDI DD5 1 H264-BEN THE MEN"

A Quiet Place Part II 2020 1080p BluRay ENG LATINO HINDI DD5 1 H264-BEN THE MEN

To download this torrent, you need a BitTorrent client: Vuze or BTGuard
Download this torrent
Download using Magnet Link

Health:
Seeds: 560
Leechers: 174
Completed: 924 
Last Checked: 16-06-2024 08:08:44

Uploader Reputation points : 1364





Write a Review for the Uploader:   3   Say Thanks with one good review:
Share on Facebook


Details
Name:A Quiet Place Part II 2020 1080p BluRay ENG LATINO HINDI DD5 1 H264-BEN THE MEN
Description:
A.Quiet.Place.Part.II.2020.1080p.BluRay.ENG.LATINO.HINDI.DD5.1.H264-BEN.THE.MEN

https://www.youtube.com/watch?v=BpdDN9d9Jio

https://www.imdb.com/title/tt8332922/

Following the events at home, the Abbott family now face the terrors of the outside world. Forced to venture into the unknown, they realize the creatures that hunt by sound are not the only threats lurking beyond the sand path.

SUB LIST

English, Spanish, Danish, Dutch, Finnish, French, German, Italian, Norwegian, Portuguese, Swedish, Turkish







Format                                   : Matroska
Format version                           : Version 4
File size                                : 11.0 GiB
Duration                                 : 1 h 37 min
Overall bit rate                         : 16.2 Mb/s
Frame rate                               : 23.976 FPS
Movie name                               : A.Quiet.Place.Part.II.2020.1080p.BluRay[Ben The Men]
Encoded date                             : 2024-06-15 23:47:40 UTC
Writing application                      : mkvmerge v85.0 ('Shame For You') 64-bit
Writing library                          : libebml v1.4.5 + libmatroska v1.7.1
Attachments                              : BEN.THE.MEN.TORRENTS.jpg

Video
ID                                       : 1
Format                                   : AVC
Format/Info                              : Advanced Video Codec
Format profile                           : [email protected]
Format settings                          : CABAC / 4 Ref Frames
Format settings, CABAC                   : Yes
Format settings, Reference frames        : 4 frames
Codec ID                                 : V_MPEG4/ISO/AVC
Duration                                 : 1 h 37 min
Bit rate                                 : 14.3 Mb/s
Nominal bit rate                         : 15.0 Mb/s
Width                                    : 1 920 pixels
Height                                   : 804 pixels
Display aspect ratio                     : 2.39:1
Frame rate mode                          : Constant
Frame rate                               : 23.976 (24000/1001) FPS
Color space                              : YUV
Chroma subsampling                       : 4:2:0
Bit depth                                : 8 bits
Scan type                                : Progressive
Bits/(Pixel*Frame)                       : 0.386
Stream size                              : 9.68 GiB (88%)
Title                                    : BEN.THE.MEN
Writing library                          : x264 core 142 r2479 dd79a61
Language                                 : English
Default                                  : Yes
Forced                                   : Yes
Color range                              : Limited
Color primaries                          : BT.709
Transfer characteristics                 : BT.709
Matrix coefficients                      : BT.709

Audio #1
ID                                       : 2
Format                                   : AC-3
Format/Info                              : Audio Coding 3
Commercial name                          : Dolby Digital
Codec ID                                 : A_AC3
Duration                                 : 1 h 37 min
Bit rate mode                            : Constant
Bit rate                                 : 640 kb/s
Channel(s)                               : 6 channels
Channel layout                           : L R C LFE Ls Rs
Sampling rate                            : 48.0 kHz
Frame rate                               : 31.250 FPS (1536 SPF)
Compression mode                         : Lossy
Delay relative to video                  : -5 ms
Stream size                              : 444 MiB (4%)
Title                                    : BTM DD 5.1
Language                                 : English

Service kind                             : Complete Main
Default                                  : No
Forced                                   : Yes
Dialog Normalization                     : -31 dB
cmixlev                                  : -4.5 dB
surmixlev                                : -6 dB
dialnorm_Average                         : -31 dB
dialnorm_Minimum                         : -31 dB
dialnorm_Maximum                         : -31 dB

Audio #2
ID                                       : 3
Format                                   : AC-3
Format/Info                              : Audio Coding 3
Commercial name                          : Dolby Digital
Codec ID                                 : A_AC3
Duration                                 : 1 h 37 min
Bit rate mode                            : Constant
Bit rate                                 : 640 kb/s
Channel(s)                               : 6 channels
Channel layout                           : L R C LFE Ls Rs
Sampling rate                            : 48.0 kHz
Frame rate                               : 31.250 FPS (1536 SPF)
Compression mode                         : Lossy
Delay relative to video                  : -83 ms
Stream size                              : 444 MiB (4%)
Title                                    : BTM DD 5.1
Language                                 : Spanish

Service kind                             : Complete Main
Default                                  : No
Forced                                   : No
Dialog Normalization                     : -31 dB
cmixlev                                  : -4.5 dB
surmixlev                                : -6 dB
dialnorm_Average                         : -31 dB
dialnorm_Minimum                         : -31 dB
dialnorm_Maximum                         : -31 dB

Audio #3
ID                                       : 4
Format                                   : AC-3
Format/Info                              : Audio Coding 3
Commercial name                          : Dolby Digital
Codec ID                                 : A_AC3
Duration                                 : 1 h 37 min
Bit rate mode                            : Constant
Bit rate                                 : 640 kb/s
Channel(s)                               : 6 channels
Channel layout                           : L R C LFE Ls Rs
Sampling rate                            : 48.0 kHz
Frame rate                               : 31.250 FPS (1536 SPF)
Compression mode                         : Lossy
Delay relative to video                  : -83 ms
Stream size                              : 444 MiB (4%)
Title                                    : BTM DD 5.1
Language                                 : Hindi

Service kind                             : Complete Main
Default                                  : No
Forced                                   : No
Dialog Normalization                     : -31 dB
cmixlev                                  : -4.5 dB
surmixlev                                : -6 dB
dialnorm_Average                         : -31 dB
dialnorm_Minimum                         : -31 dB
dialnorm_Maximum                         : -31 dB
YouTube Video:   
Category:Movies
Language:Dubs/Dual Audio
Total Size:10.99 GB
Info Hash:8BFDE17CF9F468229623EB62452FCF9E4312B2C1
Added By:Freddy1714 Verified Uploader
Date Added:2024-06-16 07:56:02
Torrent Status:Torrent Verified


Ratings:Not Yet Rated (Log in to rate it)


Tracker:
udp://tracker.opentrackr.org:1337/announce

This Torrent also has backup trackers
URLSeedersLeechersCompleted
udp://tracker.opentrackr.org:1337/announce12341254
udp://open.stealth.si:80/announce8821197
udp://tracker.torrent.eu.org:451/announce9524198
udp://explodie.org:6969/announce61140
udp://open.demonii.com:1337/announce80170
udp://tracker.tiny-vps.com:6969/announce811138
http://bt.okmp3.ru:2710/announce20734
https://tracker.tamersunion.org:443/announce1970
http://tracker.vraphim.com:6969/announce18622
http://tracker2.dler.org:80/announce1473
udp://exodus.desync.com:6969/announce281160
udp://tracker.bittor.pw:1337/announce000
http://secure.pow7.com/announce349
http://t1.pow7.com/announce349


File List: 





Comments
No comments still posted