Download Awake 2021 HDRip XviD B4ND1T69 torrent - GloDLS
Login
Username:
Password:
Remember Me:
[Signup]
[Recover Account]
Friends
Angie Torrents
Friendly Site

Pirateiro
Friendly site

Free Courses Online
Friendly site

ETTV
Friendly site

ProStyleX
Friendly site

KaranPC
Friendly site

P2PDL.com
Friendly site

OneHack
Friendly site

IGGGames
Friendly site

Torrent Details For "Awake 2021 HDRip XviD B4ND1T69"

Awake 2021 HDRip XviD B4ND1T69

To download this torrent, you need a BitTorrent client: Vuze or BTGuard
Download this torrent
Download using Magnet Link

Health:
Seeds: 505
Leechers: 281
Completed: 1,650 
Last Checked: 10-06-2021 15:00:49

Uploader Reputation points : 886





Write a Review for the Uploader:   0   Say Thanks with one good review:
Share on Facebook


Details
Name:Awake 2021 HDRip XviD B4ND1T69
Description:
Awake.2021.HDRip.XviD.B4ND1T69



Director: Mark Raso
Writers: Gregory Poirier(story by), Joseph Raso, Mark Raso
Stars: Jennifer Jason Leigh, Gina Rodriguez, Ariana Greenblatt

Plot/Story:
After a devastating global event wipes out all electronics and eliminated people's ability to sleep, a former soldier may have found a solution with her daughter.

General
Complete name               : Awake.2021.HDRip.XviD.B4ND1T69.avi
Format                      : AVI
Format/Info                 : Audio Video Interleave
File size                   : 705 MiB
Duration                    : 1 h 37 min
Overall bit rate            : 1 012 kb/s
Subtitles                   : Yes...Included(HI)

Video
ID                          : 0
Format                      : MPEG-4 Visual
Format profile              : Advanced [email protected]
Format settings, BVOP       : 2
Format settings, QPel       : No
Format settings, GMC        : No warppoints
Format settings, Matrix     : Default (H.263)
Codec ID                    : XVID
Codec ID/Hint               : XviD
Duration                    : 1 h 37 min
Bit rate                    : 871 kb/s
Width                       : 720 pixels
Height                      : 352 pixels
Display aspect ratio        : 2.045
Frame rate                  : 24.000 FPS
Color space                 : YUV
Chroma subsampling          : 4:2:0
Bit depth                   : 8 bits
Scan type                   : Progressive
Compression mode            : Lossy
Bits/(Pixel*Frame)          : 0.143
Stream size                 : 606 MiB (86%)
Writing library             : XviD 64

Audio
ID                          : 1
Format                      : MPEG Audio
Format version              : Version 1
Format profile              : Layer 3
Codec ID                    : 55
Codec ID/Hint               : MP3
Duration                    : 1 h 37 min
Bit rate mode               : Constant
Bit rate                    : 128 kb/s
Channel(s)                  : 2 channels
Sampling rate               : 48.0 kHz
Compression mode            : Lossy
Stream size                 : 89.1 MiB (13%)
Alignment                   : Aligned on interleaves
Interleave, duration        : 24  ms (0.58 video frame)

Screenshots:










Please Seed For As Long As Possible
Or At Least 1:1 Ratio...Thanks
Enjoy Peeps
YouTube Video:   
Category:Movies
Language:English  English
Total Size:704.81 MB
Info Hash:D838FC0B5A4E7D9C6B660D30E40E0FE48C201880
Added By:B4ND1T69 Verified UploaderMovie Pirate
Date Added:2021-06-09 21:20:59
Torrent Status:Torrent Verified


Ratings:Not Yet Rated (Log in to rate it)


Tracker:
udp://tracker.opentrackr.org:1337/announce

This Torrent also has backup trackers
URLSeedersLeechersCompleted
udp://tracker.opentrackr.org:1337/announce9960441
udp://exodus.desync.com:6969/announce4221115
udp://open.demonii.si:1337/announce000
udp://9.rarbg.to:2750/announce5741272
udp://open.stealth.si:80/announce4825139
udp://tracker.uw0.xyz:6969/announce4722131
udp://tracker.tiny-vps.com:6969/announce000
udp://fasttracker.foreverpirates.co:6969/announce201054
udp://explodie.org:6969/announce19120
udp://tracker.cyberia.is:6969/announce000
udp://ipv4.tracker.harry.lu:80/announce000
udp://opentracker.i2p.rocks:6969/announce7340244
udp://tracker.moeking.me:6969/announce4622125
udp://opentor.org:2710/announce4524128
udp://tracker.dler.org:6969/announce941


File List: 





Comments
No comments still posted