Download Bhediya (2022) Hindi 720p HDRip x264 AAC ESubs [1 3GB] - QRips torrent - GloDLS
Login
Username:
Password:
Remember Me:
[Signup]
[Recover Account]
Friends
Angie Torrents
Friendly Site

Get Into Way
Friendly site

Free Courses Online
Friendly site

KaranPC
Friendly site

OneHack
Friendly site

IGGGames
Friendly site

Torrent Details For "Bhediya (2022) Hindi 720p HDRip x264 AAC ESubs [1 3GB] - QRips"

Bhediya (2022) Hindi 720p HDRip x264 AAC ESubs [1 3GB] - QRips

To download this torrent, you need a BitTorrent client: Vuze or BTGuard
Download this torrent
Download using Magnet Link

Health:
Seeds: 1
Leechers: 0
Completed:
Last Checked: 25-05-2023 20:27:24

Uploader Reputation points : 31132





Write a Review for the Uploader:   45   Say Thanks with one good review:
Share on Facebook


Details
Name:Bhediya (2022) Hindi 720p HDRip x264 AAC ESubs [1 3GB] - QRips
Description:


Bhediya (2022) Hindi 720p HDRip x264 AAC ESubs [1.3GB] - QRips



Video
ID                                       : 1
Format                                   : AVC
Format/Info                              : Advanced Video Codec
Format profile                           : [email protected]
Format settings                          : CABAC / 5 Ref Frames
Format settings, CABAC                   : Yes
Format settings, Reference frames        : 5 frames
Codec ID                                 : V_MPEG4/ISO/AVC
Duration                                 : 2 h 21 min
Bit rate                                 : 1 150 kb/s
Width                                    : 1 280 pixels
Height                                   : 536 pixels
Display aspect ratio                     : 2.40:1
Frame rate mode                          : Constant
Frame rate                               : 25.000 FPS

Commercial name                          : HE-AAC
Format settings                          : NBC
Codec ID                                 : A_AAC-5
Duration                                 : 2 h 21 min
Bit rate                                 : 192 kb/s
Channel(s)                               : 6 channels
Channel layout                           : C L R Ls Rs LFE
Sampling rate                            : 48.0 kHz
Frame rate                               : 23.438 FPS (2048 SPF)
Compression mode                         : Lossy
Stream size                              : 195 MiB (14%)
Language                                 : Hindi
Default                                  : Yes
Forced                                   : Yes

Text
ID                                       : 3
Format                                   : UTF-8
Codec ID                                 : S_TEXT/UTF8
Codec ID/Info                            : UTF-8 Plain Text
Duration                                 : 2 h 13 min
Bit rate                                 : 61 b/s
Count of elements                        : 1882
Stream size                              : 60.0 KiB (0%)
Language                                 : English
Default                                  : Yes
Forced                                   : Yes


Screens:



YouTube Video:
Category:Movies
Language:Hindi  Hindi
Total Size:1.33 GB
Info Hash:377A7AE9B1EB7A8D2318F3E7BBFF0C493A2171C3
Added By:Radioactive Verified UploaderMovie PirateVIP
Date Added:2023-05-26 03:27:22
Torrent Status:Torrent Verified


Ratings:Not Yet Rated (Log in to rate it)


Tracker:
udp://tracker.opentrackr.org:1337/announce

This Torrent also has backup trackers
URLSeedersLeechersCompleted
udp://tracker.opentrackr.org:1337/announce000
udp://exodus.desync.com:6969/announce000
udp://9.rarbg.me:2970/announce000
udp://tracker.opentrackr.org:1337/announce000
udp://tracker.tiny-vps.com:6969/announce000
udp://tracker.internetwarriors.net:1337/announce000
udp://opentor.org:2710/announce000
udp://tracker.torrent.eu.org:451/announce000
udp://explodie.org:6969/announce000
udp://tracker.moeking.me:6969/announce000
udp://tracker.cyberia.is:6969/announce000
udp://9.rarbg.me:2980/announce000
udp://9.rarbg.to:2940/announce000
udp://tracker.uw0.xyz:6969/announce000
udp://tracker.openbittorrent.com:1337/announce000


File List: 





Comments
No comments still posted