Download Black Hawk Down 2001 EXTENDED REMASTERED BRRip XviD B4ND1T69 torrent - GloDLS
Login
Username:
Password:
Remember Me:
[Signup]
[Recover Account]
Friends
Angie Torrents
Friendly Site

Pirateiro
Friendly site

Free Courses Online
Friendly site

ETTV
Friendly site

ProStyleX
Friendly site

KaranPC
Friendly site

P2PDL.com
Friendly site

OneHack
Friendly site

IGGGames
Friendly site

Torrent Details For "Black Hawk Down 2001 EXTENDED REMASTERED BRRip XviD B4ND1T69"

Black Hawk Down 2001 EXTENDED REMASTERED BRRip XviD B4ND1T69

To download this torrent, you need a BitTorrent client: Vuze or BTGuard
Download this torrent
Download using Magnet Link

Health:
Seeds: 196
Leechers: 114
Completed: 503 
Last Checked: 04-05-2021 23:39:11

Uploader Reputation points : 776
External: Torrent






Write a Review for the Uploader:   0   Say Thanks with one good review:
Share on Facebook


Details
Name:Black Hawk Down 2001 EXTENDED REMASTERED BRRip XviD B4ND1T69
Description:
Black.Hawk.Down.2001.EXTENDED.REMASTERED.BRRip.XviD.B4ND1T69



Director: Ridley Scott
Writers: Mark Bowden (book), Ken Nolan (screenplay)
Stars: Josh Hartnett, Ewan McGregor, Tom Sizemore

Plot/Story:
160 elite U.S. soldiers drop into Somalia to capture two top lieutenants of a renegade warlord and find themselves in a desperate battle with a large force of heavily-armed Somalis.

General
Complete name               : Black.Hawk.Down.2001.EXTENDED.REMASTERED.BRRip.XviD.B4ND1T69.avi
Format                      : AVI
Format/Info                 : Audio Video Interleave
File size                   : 1.85 GiB
Duration                    : 2 h 31 min
Overall bit rate            : 1 741 kb/s
Subtitles                   : Yes...Hardcoded for non-English parts + file included(HI)

Video
ID                          : 0
Format                      : MPEG-4 Visual
Format profile              : Advanced [email protected]
Format settings, BVOP       : 2
Format settings, QPel       : No
Format settings, GMC        : No warppoints
Format settings, Matrix     : Default (H.263)
Codec ID                    : XVID
Codec ID/Hint               : XviD
Duration                    : 2 h 31 min
Bit rate                    : 1 600 kb/s
Width                       : 720 pixels
Height                      : 304 pixels
Display aspect ratio        : 2.35:1
Frame rate                  : 23.976 (24000/1001) FPS
Color space                 : YUV
Chroma subsampling          : 4:2:0
Bit depth                   : 8 bits
Scan type                   : Progressive
Compression mode            : Lossy
Bits/(Pixel*Frame)          : 0.305
Stream size                 : 1.70 GiB (92%)
Writing library             : XviD 64

Audio
ID                          : 1
Format                      : MPEG Audio
Format version              : Version 1
Format profile              : Layer 3
Codec ID                    : 55
Codec ID/Hint               : MP3
Duration                    : 2 h 31 min
Bit rate mode               : Constant
Bit rate                    : 128 kb/s
Channel(s)                  : 2 channels
Sampling rate               : 48.0 kHz
Compression mode            : Lossy
Stream size                 : 139 MiB (7%)
Alignment                   : Aligned on interleaves
Interleave, duration        : 24  ms (0.58 video frame)

Screenshots:










Please Seed For As Long As Possible
Or At Least 1:1 Ratio...Thanks
Enjoy Peeps
YouTube Video:   
Category:Movies
Language:English  English
Total Size:1.85 GB
Info Hash:53E55F1F65E1301F2D3C0B79B45845105FB7A29E
Added By:B4ND1T69 Verified UploaderMovie Pirate
Date Added:2021-05-05 00:15:18
Torrent Status:Torrent Verified


Ratings:Not Yet Rated (Log in to rate it)


Tracker:
udp://tracker.opentrackr.org:1337/announce

This Torrent also has backup trackers
URLSeedersLeechersCompleted
udp://tracker.opentrackr.org:1337/announce281487
udp://exodus.desync.com:6969/announce14642
udp://open.demonii.si:1337/announce000
udp://9.rarbg.to:2750/announce171293
udp://open.stealth.si:80/announce18946
udp://tracker.uw0.xyz:6969/announce19943
udp://tracker.tiny-vps.com:6969/announce171018
udp://fasttracker.foreverpirates.co:6969/announce13716
udp://explodie.org:6969/announce1080
udp://tracker.cyberia.is:6969/announce000
udp://ipv4.tracker.harry.lu:80/announce970
udp://opentracker.i2p.rocks:6969/announce211370
udp://tracker.moeking.me:6969/announce15943
udp://opentor.org:2710/announce151045
udp://tracker.dler.org:6969/announce000


File List: 





Comments
No comments still posted