Download Bora 2023 1080p AMZN WEB-DL DDP2 0 H 264-FLUX torrent - GloDLS
Login
Username:
Password:
Remember Me:
[Signup]
[Recover Account]
Friends
Angie Torrents
Friendly Site

Get Into Way
Friendly site

Free Courses Online
Friendly site

KaranPC
Friendly site

OneHack
Friendly site

IGGGames
Friendly site

Torrent Details For "Bora 2023 1080p AMZN WEB-DL DDP2 0 H 264-FLUX"

Bora 2023 1080p AMZN WEB-DL DDP2 0 H 264-FLUX

To download this torrent, you need a BitTorrent client: Vuze or BTGuard
Download this torrent
Download using Magnet Link

Health:
Seeds: 1
Leechers: 0
Completed:
Last Checked: 04-06-2023 04:47:17

Uploader Reputation points : 28246





Write a Review for the Uploader:   45   Say Thanks with one good review:
Share on Facebook


Details
Name:Bora 2023 1080p AMZN WEB-DL DDP2 0 H 264-FLUX
Description:


Bora 2023 1080p AMZN WEB-DL DDP2 0 H 264-FLUX



Format : Matroska
Format version : Version 4
File size : 6.22 GiB
Duration : 1 h 29 min
Overall bit rate : 9 934 kb/s
Writing application : mkvmerge v75.0.0 ('Goliath') 64-bit
Writing library : libebml v1.4.4 + libmatroska v1.7.1

Video
ID : 1
Format : AVC
Format/Info : Advanced Video Codec
Format profile : High@L4
Format settings : CABAC / 4 Ref Frames
Format settings, CABAC : Yes
Format settings, Reference frames : 4 frames
Codec ID : V_MPEG4/ISO/AVC
Duration : 1 h 29 min
Bit rate mode : Constant
Bit rate : 10 000 kb/s
Width : 1 920 pixels
Height : 872 pixels
Display aspect ratio : 2.2:1
Frame rate mode : Constant
Frame rate : 23.976 (24000/1001) FPS
Color space : YUV
Chroma subsampling : 4:2:0
Bit depth : 8 bits
Scan type : Progressive
Bits/(Pixel*Frame) : 0.249
Stream size : 6.07 GiB (98%)
Default : Yes
Forced : No
Color range : Limited
Color primaries : BT.709
Transfer characteristics : BT.709
Matrix coefficients : BT.709

Audio
ID : 2
Format : E-AC-3
Format/Info : Enhanced AC-3
Commercial name : Dolby Digital Plus
Codec ID : A_EAC3
Duration : 1 h 29 min
Bit rate mode : Constant
Bit rate : 224 kb/s
Channel(s) : 2 channels
Channel layout : L R
Sampling rate : 48.0 kHz
Frame rate : 31.250 FPS (1536 SPF)
Compression mode : Lossy
Stream size : 144 MiB (2%)
Language : English
Service kind : Complete Main
Default : Yes
Forced : No

Text #1
ID : 3
Format : UTF-8
Codec ID : S_TEXT/UTF8
Codec ID/Info : UTF-8 Plain Text
Duration : 1 h 27 min
Bit rate : 71 b/s
Frame rate : 0.296 FPS
Count of elements : 1554
Stream size : 46.1 KiB (0%)
Language : English (US)
Default : No
Forced : No

Text #2
ID : 4
Format : UTF-8
Codec ID : S_TEXT/UTF8
Codec ID/Info : UTF-8 Plain Text
Duration : 1 h 29 min
Bit rate : 79 b/s
Frame rate : 0.329 FPS
Count of elements : 1760
Stream size : 52.0 KiB (0%)
Title : SDH
Language : English (US)
Default : No
Forced : No

Screens:



;
YouTube Video:
Category:Movies
Language:English  English
Total Size:6.22 GB
Info Hash:038FE9F51DC0A53DC795878AD953A19DCE027985
Added By:Radioactive Verified UploaderMovie PirateVIP
Date Added:2023-06-04 11:47:16
Torrent Status:Torrent Verified


Ratings:Not Yet Rated (Log in to rate it)


Tracker:
udp://tracker.opentrackr.org:1337/announce

This Torrent also has backup trackers
URLSeedersLeechersCompleted
udp://tracker.opentrackr.org:1337/announce000
udp://exodus.desync.com:6969/announce000
udp://9.rarbg.me:2970/announce000
udp://tracker.opentrackr.org:1337/announce000
udp://tracker.tiny-vps.com:6969/announce000
udp://tracker.internetwarriors.net:1337/announce000
udp://opentor.org:2710/announce000
udp://tracker.torrent.eu.org:451/announce000
udp://explodie.org:6969/announce000
udp://tracker.moeking.me:6969/announce000
udp://tracker.cyberia.is:6969/announce000
udp://9.rarbg.me:2980/announce000
udp://9.rarbg.to:2940/announce000
udp://tracker.uw0.xyz:6969/announce000
udp://tracker.openbittorrent.com:1337/announce000


File List: 





Comments
No comments still posted