Download Boyz N The Hood 1991 2160p BluRay REMUX DV HDR ENG LATINO TrueHD Atmos 7 1 H265-BEN THE MEN torrent - GloDLS
Torrent Details For "Boyz N The Hood 1991 2160p BluRay REMUX DV HDR ENG LATINO TrueHD Atmos 7 1 H265-BEN T..."

Boyz N The Hood 1991 2160p BluRay REMUX DV HDR ENG LATINO TrueHD Atmos 7 1 H265-BEN T...

To download this torrent, you need a BitTorrent client: Vuze or BTGuard
Download this torrent
Download using Magnet Link

Health:
Seeds: 225
Leechers: 183
Completed: 602 
Last Checked: 17-06-2024 09:48:35

Uploader Reputation points : 1364





Write a Review for the Uploader:   3   Say Thanks with one good review:
Share on Facebook


Details
Name:Boyz N The Hood 1991 2160p BluRay REMUX DV HDR ENG LATINO TrueHD Atmos 7 1 H265-BEN T...
Description:
Boyz.N.The.Hood.1991.2160p.BluRay.REMUX.DV.HDR.ENG.LATINO.TrueHD.Atmos.7.1.H265-BEN.THE.MEN

https://www.youtube.com/watch?v=ZI-qlj-4cpk

https://www.imdb.com/title/tt0101507/

Follows the lives of three young males living in the Crenshaw ghetto of Los Angeles, dissecting questions of race, relationships, violence, and future prospects.

SUB LIST

English, Arabic, Chinese, Danish, Dutch, Finnish, French, German, Icelandic, Italian, Korean, Norwegian, Portuguese, Spanish, Swedish, Thai, Turkish







Format                                   : Matroska
Format version                           : Version 4
File size                                : 43.7 GiB
Duration                                 : 1 h 52 min
Overall bit rate mode                    : Variable
Overall bit rate                         : 55.8 Mb/s
Frame rate                               : 23.976 FPS
Movie name                               : Boyz.N.The.Hood.1991.2160p.BluRay.REMUX[Ben The Men]
Encoded date                             : 2024-06-16 03:58:32 UTC
Writing application                      : mkvmerge v85.0 ('Shame For You') 64-bit
Writing library                          : libebml v1.4.5 + libmatroska v1.7.1
Attachments                              : BEN.THE.MEN.TORRENTS.jpg

Video
ID                                       : 1
Format                                   : HEVC
Format/Info                              : High Efficiency Video Coding
Format profile                           : Main [email protected]@High
HDR format                               : Dolby Vision, Version 1.0, Profile 8.1, dvhe.08.06, BL+RPU, no metadata compression, HDR10 compatible / SMPTE ST 2086, Version HDR10, HDR10 compatible
Codec ID                                 : V_MPEGH/ISO/HEVC
Duration                                 : 1 h 52 min
Bit rate                                 : 50.8 Mb/s
Width                                    : 3 840 pixels
Height                                   : 2 160 pixels
Display aspect ratio                     : 16:9
Frame rate mode                          : Constant
Frame rate                               : 23.976 (24000/1001) FPS
Color space                              : YUV
Chroma subsampling                       : 4:2:0 (Type 2)
Bit depth                                : 10 bits
Bits/(Pixel*Frame)                       : 0.255
Stream size                              : 39.8 GiB (91%)
Title                                    : BEN.THE.MEN
Language                                 : English
Default                                  : Yes
Forced                                   : Yes
Color range                              : Limited
Color primaries                          : BT.2020
Transfer characteristics                 : PQ
Matrix coefficients                      : BT.2020 non-constant
Mastering display color primaries        : Display P3
Mastering display luminance              : min: 0.0050 cd/m2, max: 4000 cd/m2
Maximum Content Light Level              : 3991 cd/m2
Maximum Frame-Average Light Level        : 186 cd/m2

Audio #1
ID                                       : 2
ID in the original source medium         : 4355 (0x1103)
Format                                   : MLP FBA 16-ch
Format/Info                              : Meridian Lossless Packing FBA with 16-channel presentation
Commercial name                          : Dolby TrueHD with Dolby Atmos
Codec ID                                 : A_TRUEHD
Duration                                 : 1 h 52 min
Bit rate mode                            : Variable
Bit rate                                 : 3 264 kb/s
Maximum bit rate                         : 5 040 kb/s
Channel(s)                               : 8 channels
Channel layout                           : L R C LFE Ls Rs Lb Rb
Sampling rate                            : 48.0 kHz
Frame rate                               : 1 200.000 FPS (40 SPF)
Compression mode                         : Lossless
Stream size                              : 2.56 GiB (6%)
Title                                    : BTM TrueHD Atmos 7.1
Language                                 : English

Default                                  : Yes
Forced                                   : Yes
Original source medium                   : Blu-ray
Number of dynamic objects                : 11
Bed channel count                        : 1 channel
Bed channel configuration                : LFE

Audio #2
ID                                       : 3
Format                                   : AC-3
Format/Info                              : Audio Coding 3
Commercial name                          : Dolby Digital
Codec ID                                 : A_AC3
Duration                                 : 1 h 52 min
Bit rate mode                            : Constant
Bit rate                                 : 640 kb/s
Channel(s)                               : 6 channels
Channel layout                           : L R C LFE Ls Rs
Sampling rate                            : 48.0 kHz
Frame rate                               : 31.250 FPS (1536 SPF)
Compression mode                         : Lossy
Stream size                              : 513 MiB (1%)
Title                                    : BTM DD 5.1
Language                                 : English

Service kind                             : Complete Main
Default                                  : No
Forced                                   : No
Dialog Normalization                     : -31 dB
cmixlev                                  : -4.5 dB
surmixlev                                : -6 dB
dialnorm_Average                         : -31 dB
dialnorm_Minimum                         : -31 dB
dialnorm_Maximum                         : -31 dB

Audio #3
ID                                       : 4
Format                                   : E-AC-3
Format/Info                              : Enhanced AC-3
Commercial name                          : Dolby Digital Plus
Codec ID                                 : A_EAC3
Duration                                 : 1 h 52 min
Bit rate mode                            : Constant
Bit rate                                 : 960 kb/s
Channel(s)                               : 6 channels
Channel layout                           : L R C LFE Ls Rs
Sampling rate                            : 48.0 kHz
Frame rate                               : 31.250 FPS (1536 SPF)
Compression mode                         : Lossy
Stream size                              : 770 MiB (2%)
Title                                    : BTM DDP5.1
Language                                 : Spanish

Service kind                             : Complete Main
Default                                  : No
Forced                                   : No
Dialog Normalization                     : -31 dB
dialnorm_Average                         : -31 dB
dialnorm_Minimum                         : -31 dB
dialnorm_Maximum                         : -31 dB
YouTube Video:   
Category:Movies
Language:Dubs/Dual Audio
Total Size:43.69 GB
Info Hash:B4E60088EA7680C22288364953B39659F57D0F61
Added By:Freddy1714 Verified Uploader
Date Added:2024-06-16 15:27:05
Torrent Status:Torrent Verified


Ratings:Not Yet Rated (Log in to rate it)


Tracker:
udp://tracker.opentrackr.org:1337/announce

This Torrent also has backup trackers
URLSeedersLeechersCompleted
udp://tracker.opentrackr.org:1337/announce3831169
udp://open.stealth.si:80/announce3225121
udp://tracker.torrent.eu.org:451/announce3729141
udp://explodie.org:6969/announce26240
udp://open.demonii.com:1337/announce16110
udp://tracker.tiny-vps.com:6969/announce000
http://bt.okmp3.ru:2710/announce8115
https://tracker.tamersunion.org:443/announce13210
http://tracker.vraphim.com:6969/announce91143
http://tracker2.dler.org:80/announce6132
udp://exodus.desync.com:6969/announce12957
udp://tracker.bittor.pw:1337/announce000
http://secure.pow7.com/announce14032
http://t1.pow7.com/announce14032


File List: 





Comments
No comments still posted