Download Chaos Walking 2021 HDRip XviD B4ND1T69 torrent - GloDLS
Login
Username:
Password:
Remember Me:
[Signup]
[Recover Account]
Friends
Angie Torrents
Friendly Site

Pirateiro
Friendly site

Free Courses Online
Friendly site

ETTV
Friendly site

ProStyleX
Friendly site

KaranPC
Friendly site

P2PDL.com
Friendly site

OneHack
Friendly site

IGGGames
Friendly site

Torrent Details For "Chaos Walking 2021 HDRip XviD B4ND1T69"

Chaos Walking 2021 HDRip XviD B4ND1T69

To download this torrent, you need a BitTorrent client: Vuze or BTGuard
Download this torrent
Download using Magnet Link

Health:
Seeds: 71
Leechers: 56
Completed: 69 
Last Checked: 04-05-2021 12:46:58

Uploader Reputation points : 778
External: Torrent






Write a Review for the Uploader:   0   Say Thanks with one good review:
Share on Facebook


Details
Name:Chaos Walking 2021 HDRip XviD B4ND1T69
Description:
Chaos.Walking.2021.HDRip.XviD.B4ND1T69



Director: Doug Liman
Writers: Patrick Ness (screenplay by), Christopher Ford (screenplay by)
Stars: Tom Holland, Daisy Ridley, Demián Bichir

Plot/Story:
Two unlikely companions embark on a perilous adventure through the badlands of an unexplored planet as they try to escape a dangerous and disorienting reality, where all inner thoughts are seen and heard by everyone.

General
Complete name               : Chaos.Walking.2021.HDRip.XviD.B4ND1T69.avi
Format                      : AVI
Format/Info                 : Audio Video Interleave
File size                   : 1.32 GiB
Duration                    : 1 h 48 min
Overall bit rate            : 1 741 kb/s
Subtitles                   : Yes...Included(HI)

Video
ID                          : 0
Format                      : MPEG-4 Visual
Format profile              : Advanced [email protected]
Format settings, BVOP       : 2
Format settings, QPel       : No
Format settings, GMC        : No warppoints
Format settings, Matrix     : Default (H.263)
Codec ID                    : XVID
Codec ID/Hint               : XviD
Duration                    : 1 h 48 min
Bit rate                    : 1 600 kb/s
Width                       : 720 pixels
Height                      : 304 pixels
Display aspect ratio        : 2.35:1
Frame rate                  : 23.976 (24000/1001) FPS
Color space                 : YUV
Chroma subsampling          : 4:2:0
Bit depth                   : 8 bits
Scan type                   : Progressive
Compression mode            : Lossy
Bits/(Pixel*Frame)          : 0.305
Stream size                 : 1.22 GiB (92%)
Writing library             : XviD 64

Audio
ID                          : 1
Format                      : MPEG Audio
Format version              : Version 1
Format profile              : Layer 3
Codec ID                    : 55
Codec ID/Hint               : MP3
Duration                    : 1 h 48 min
Bit rate mode               : Constant
Bit rate                    : 128 kb/s
Channel(s)                  : 2 channels
Sampling rate               : 48.0 kHz
Compression mode            : Lossy
Stream size                 : 99.7 MiB (7%)
Alignment                   : Aligned on interleaves
Interleave, duration        : 24  ms (0.58 video frame)

Screenshots:










Please Seed For As Long As Possible
Or At Least 1:1 Ratio...Thanks
Enjoy Peeps
YouTube Video:   
Category:Movies
Language:English  English
Total Size:1.32 GB
Info Hash:D8B326B346CEF0648FD969F8F8F52B2717E756CE
Added By:B4ND1T69 Verified UploaderMovie Pirate
Date Added:2021-05-04 18:06:47
Torrent Status:Torrent Verified


Ratings:Not Yet Rated (Log in to rate it)


Tracker:
udp://tracker.opentrackr.org:1337/announce

This Torrent also has backup trackers
URLSeedersLeechersCompleted
udp://tracker.opentrackr.org:1337/announce101013
udp://exodus.desync.com:6969/announce839
udp://open.demonii.si:1337/announce000
udp://9.rarbg.to:2750/announce866
udp://open.stealth.si:80/announce869
udp://tracker.uw0.xyz:6969/announce776
udp://tracker.tiny-vps.com:6969/announce000
udp://fasttracker.foreverpirates.co:6969/announce534
udp://explodie.org:6969/announce000
udp://tracker.cyberia.is:6969/announce000
udp://ipv4.tracker.harry.lu:80/announce230
udp://opentracker.i2p.rocks:6969/announce889
udp://tracker.moeking.me:6969/announce736
udp://opentor.org:2710/announce766
udp://tracker.dler.org:6969/announce111


File List: 





Comments
No comments still posted