Download The Inheritance S01 (2023) Rus 1080р WEBRip ViruseProject torrent - GloDLS
Torrent Details For "The Inheritance S01 (2023) Rus 1080р WEBRip ViruseProject"

The Inheritance S01 (2023) Rus 1080р WEBRip ViruseProject

To download this torrent, you need a BitTorrent client: Vuze or BTGuard
Download this torrent
Download using Magnet Link

Health:
Seeds: 4
Leechers: 88
Completed:
Last Checked: 14-02-2024 09:40:37

Uploader Reputation points : 2223





Write a Review for the Uploader:   0   Say Thanks with one good review:
Share on Facebook
TV Info

The Inheritance

Three siblings have their world turned upside down when their father dies unexpectedly, and they make the surprising discovery he hasn’t left them anything in his will. This sends them on a quest to find out the truth about his death – was his death an accident, or murder?



Details
Name:The Inheritance S01 (2023) Rus 1080р WEBRip ViruseProject
Description:
Наследство / The Inheritance / сезон 1



https://www.imdb.com/title/tt26440778/






General
Unique ID                                : 197337768961904852194006032664872263394 (0x9475DF30EBDC4ECFB60F4358750A9EE2)
Complete name                            : The.Inheritance.S01E01.1080p.WEBRip.ViruseProject.mkv
Format                                   : Matroska
Format version                           : Version 4
File size                                : 1.55 GiB
Duration                                 : 44 min 41 s
Overall bit rate                         : 4 955 kb/s
Encoded date                             : UTC 2024-02-14 08:08:23
Writing application                      : mkvmerge v8.3.0 ('Over the Horizon') 64bit
Writing library                          : libebml v1.3.1 + libmatroska v1.4.2

Video
ID                                       : 1
Format                                   : AVC
Format/Info                              : Advanced Video Codec
Format profile                           : [email protected]
Format settings                          : CABAC / 3 Ref Frames
Format settings, CABAC                   : Yes
Format settings, Reference frames        : 3 frames
Format settings, GOP                     : M=1, N=30
Codec ID                                 : V_MPEG4/ISO/AVC
Duration                                 : 44 min 41 s
Bit rate                                 : 4 763 kb/s
Width                                    : 1 920 pixels
Height                                   : 1 080 pixels
Display aspect ratio                     : 16:9
Frame rate mode                          : Constant
Frame rate                               : 25.000 FPS
Color space                              : YUV
Chroma subsampling                       : 4:2:0
Bit depth                                : 8 bits
Scan type                                : Progressive
Bits/(Pixel*Frame)                       : 0.092
Stream size                              : 1.49 GiB (96%)
Language                                 : English
Default                                  : Yes
Forced                                   : No

Audio
ID                                       : 2
Format                                   : AAC LC
Format/Info                              : Advanced Audio Codec Low Complexity
Codec ID                                 : A_AAC-2
Duration                                 : 44 min 41 s
Bit rate                                 : 192 kb/s
Channel(s)                               : 2 channels
Channel layout                           : L R
Sampling rate                            : 48.0 kHz
Frame rate                               : 46.875 FPS (1024 SPF)
Compression mode                         : Lossy
Stream size                              : 60.5 MiB (4%)
Title                                    : ViruseProject
Language                                 : Russian
Default                                  : Yes
Forced                                   : No
YouTube Video:   
Category:TV
Language:Russian  Russian
Total Size:6.20 GB
Info Hash:CD5BA5F30792070587B9888BB021CCA45959887A
Added By:viruse Verified UploaderTV Uploader
Date Added:2024-02-14 17:39:33
Torrent Status:Torrent Verified


Ratings:Not Yet Rated (Log in to rate it)


Tracker:
udp://opentor.org:2710/announce

This Torrent also has backup trackers
URLSeedersLeechersCompleted
udp://opentor.org:2710/announce000
udp://tracker.torrent.eu.org:451/announce1100
udp://tracker.cyberia.is:6969/announce000
udp://exodus.desync.com:6969/announce090
udp://tracker.moeking.me:6969/announce1100
udp://tracker.opentrackr.org:1337/announce0310
udp://tracker.tiny-vps.com:6969/announce080
udp://open.stealth.si:80/announce1100
udp://tracker.iamhansen.xyz:2000/announce000
udp://tracker.theoks.net:6969/announce1100
udp://retracker.lanta-net.ru:2710/announce000
udp://open.demonii.si:1337/announce000
udp://tracker.uw0.xyz:6969/announce000
udp://ipv4.tracker.harry.lu:80/announce000
udp://tracker.coppersurfer.tk:6969/announce000


File List: 





Comments
No comments still posted