Download Dark Desire S01 2021 x264 720p WebHD Hindi THE GOPI SAHI torrent - GloDLS
HTML tutorial
Torrent Details For "Dark Desire S01 2021 x264 720p WebHD Hindi THE GOPI SAHI"

Dark Desire S01 2021 x264 720p WebHD Hindi THE GOPI SAHI

To download this torrent, you need a BitTorrent client: Vuze or BTGuard
Download this torrent
Download using Magnet Link

Health:
Seeds: 0
Leechers: 0
Completed:
Last Checked: 15-09-2021 08:12:42

Uploader Reputation points : 3544





Write a Review for the Uploader:   10   Say Thanks with one good review:
Share on Facebook
TV Info

Dark Desire (2020)

Married Alma spends a fateful weekend away from home that ignites passion, ends in tragedy and leads her to question the truth about those close to her.



Details
Name:Dark Desire S01 2021 x264 720p WebHD Hindi THE GOPI SAHI
Description:
Join Us On TeleGram

https://t.me/gopisahit



Dark Desire S01 2021 x264 720p WebHD Esub Hindi THE GOPI SAHI

Format                         : Matroska
Format version                 : Version 4
File size                      : 4.06 GiB
Duration                       : 10 h 2 min
Overall bit rate               : 966 kb/s
Movie name                     : Dark Desire S01 2021 GOPI SAHI
Encoded date                   : UTC 2021-09-15 06:03:09

Video
Format                         : AVC
Format/Info                    : Advanced Video Codec
Format profile                 : [email protected]
Format settings                : 2 Ref Frames
Format settings, CABAC         : No
Format settings, Reference fra : 2 frames
Codec ID                       : V_MPEG4/ISO/AVC
Duration                       : 10 h 2 min
Bit rate                       : 900 kb/s
Width                          : 1 280 pixels
Height                         : 720 pixels
Display aspect ratio           : 16:9
Frame rate mode                : Constant
Frame rate                     : 23.976 (23976/1000) FPS
Color space                    : YUV
Chroma subsampling             : 4:2:0
Bit depth                      : 8 bits
Scan type                      : Progressive
Bits/(Pixel*Frame)             : 0.041
Stream size                    : 3.66 GiB (90%)
Title                          : GOPI SAHI
Writing library                : x264 core 157 r2970 5493be8

Audio
ID                             : 2
Format                         : AAC LC
Format/Info                    : Advanced Audio Codec Low Complexity
Codec ID                       : A_AAC-2
Duration                       : 10 h 2 min
Bit rate                       : 96.0 kb/s
Channel(s)                     : 2 channels
Channel layout                 : L R
Sampling rate                  : 48.0 kHz
Frame rate                     : 46.875 FPS (1024 SPF)
Compression mode               : Lossy
Delay relative to video        : -21 ms
Stream size                    : 409 MiB (10%)
Title                          : GOPI SAHI
Language                       : Hindi





YouTube Video:
Category:Movies
Language:Hindi  Hindi
Total Size:4.06 GB
Info Hash:93F7093E062E4E2B5F563C32BD9F150FF56D3C44
Added By:GOPISAHI Verified UploaderMovie Pirate
Date Added:2021-09-15 15:12:39
Torrent Status:Torrent Verified


Ratings:Not Yet Rated (Log in to rate it)


Tracker:
udp://opentracker.i2p.rocks:6969/announce

This Torrent also has backup trackers
URLSeedersLeechersCompleted
udp://opentracker.i2p.rocks:6969/announce000
udp://p4p.arenabg.com:1337/announce000
udp://exodus.desync.com:6969/announce000
udp://tracker.sbsub.com:2710/announce000
udp://tracker.tiny-vps.com:6969/announce000
udp://tracker.opentrackr.org:1337/announce000
udp://open.stealth.si:80/announce000
udp://retracker.lanta-net.ru:2710/announce000
http://bt1.archive.org:6969/announce000
http://bt2.archive.org:6969/announce000
udp://tracker.uw0.xyz:6969/announce000
http://tracker.files.fm:6969/announce000
udp://tracker.zerobytes.xyz:1337/announce000
https://tracker.nitrix.me:443/announce000
udp://tracker.shkinev.me:6969/announce000


File List: 





Comments
No comments still posted