Download Dead Man Down 2013 1080p BluRay REMUX ENG LATINO RUS DTS-HD Master DDP5 1 H264-BEN THE MEN torrent - GloDLS
Login
Username:
Password:
Remember Me:
[Signup]
[Recover Account]
Friends
Angie Torrents
Friendly Site

Get Into Way
Friendly site

Free Courses Online
Friendly site

KaranPC
Friendly site

OneHack
Friendly site

IGGGames
Friendly site

Torrent Details For "Dead Man Down 2013 1080p BluRay REMUX ENG LATINO RUS DTS-HD Master DDP5 1 H264-BEN TH..."

Dead Man Down 2013 1080p BluRay REMUX ENG LATINO RUS DTS-HD Master DDP5 1 H264-BEN TH...

To download this torrent, you need a BitTorrent client: Vuze or BTGuard
Download this torrent
Download using Magnet Link

Health:
Seeds: 163
Leechers: 98
Completed: 830 
Last Checked: 13-06-2024 05:09:47

Uploader Reputation points : 1137





Write a Review for the Uploader:   0   Say Thanks with one good review:
Share on Facebook


Details
Name:Dead Man Down 2013 1080p BluRay REMUX ENG LATINO RUS DTS-HD Master DDP5 1 H264-BEN TH...
Description:
Dead.Man.Down.2013.1080p.BluRay.REMUX.ENG.LATINO.RUS.DTS-HD.Master.DDP5.1.H264-BEN.THE.MEN

https://www.youtube.com/watch?v=6WKmnAcMTKM

https://www.imdb.com/title/tt2101341/

In New York City, a crime lord's right-hand man is helped by a woman seeking retribution.

ENG RUS SUBS







Format                                   : Matroska
Format version                           : Version 4
File size                                : 25.6 GiB
Duration                                 : 1 h 57 min
Overall bit rate mode                    : Variable
Overall bit rate                         : 31.1 Mb/s
Frame rate                               : 23.976 FPS
Movie name                               : Dead.Man.Down.2013.1080p.BluRay.REMUX[Ben The Men]
Encoded date                             : 2024-06-11 16:24:56 UTC
Writing application                      : mkvmerge v85.0 ('Shame For You') 64-bit
Writing library                          : libebml v1.4.5 + libmatroska v1.7.1
Attachments                              : BEN.THE.MEN.TORRENTS.jpg

Video
ID                                       : 1
Format                                   : AVC
Format/Info                              : Advanced Video Codec
Format profile                           : [email protected]
Format settings                          : CABAC / 2 Ref Frames
Format settings, CABAC                   : Yes
Format settings, Reference frames        : 2 frames
Format settings, Slice count             : 4 slices per frame
Codec ID                                 : V_MPEG4/ISO/AVC
Duration                                 : 1 h 57 min
Bit rate mode                            : Variable
Bit rate                                 : 24.9 Mb/s
Width                                    : 1 920 pixels
Height                                   : 1 080 pixels
Display aspect ratio                     : 16:9
Frame rate mode                          : Constant
Frame rate                               : 23.976 (24000/1001) FPS
Color space                              : YUV
Chroma subsampling                       : 4:2:0
Bit depth                                : 8 bits
Scan type                                : Progressive
Bits/(Pixel*Frame)                       : 0.501
Time code of first frame                 : 00:59:58:00
Stream size                              : 20.5 GiB (80%)
Title                                    : BEN.THE.MEN
Language                                 : English
Default                                  : Yes
Forced                                   : Yes

Audio #1
ID                                       : 2
Format                                   : DTS XLL
Format/Info                              : Digital Theater Systems
Commercial name                          : DTS-HD Master Audio
Codec ID                                 : A_DTS
Duration                                 : 1 h 57 min
Bit rate mode                            : Variable
Bit rate                                 : 3 497 kb/s
Channel(s)                               : 6 channels
Channel layout                           : C L R Ls Rs LFE
Sampling rate                            : 48.0 kHz
Frame rate                               : 93.750 FPS (512 SPF)
Bit depth                                : 24 bits
Compression mode                         : Lossless
Stream size                              : 2.88 GiB (11%)
Title                                    : BTM DTS-HD Master
Language                                 : English

Default                                  : Yes
Forced                                   : Yes

Audio #2
ID                                       : 3
Format                                   : E-AC-3
Format/Info                              : Enhanced AC-3
Commercial name                          : Dolby Digital Plus
Codec ID                                 : A_EAC3
Duration                                 : 1 h 57 min
Bit rate mode                            : Constant
Bit rate                                 : 960 kb/s
Channel(s)                               : 6 channels
Channel layout                           : L R C LFE Ls Rs
Sampling rate                            : 48.0 kHz
Frame rate                               : 31.250 FPS (1536 SPF)
Compression mode                         : Lossy
Stream size                              : 809 MiB (3%)
Title                                    : BTM DDP5.1
Language                                 : English

Service kind                             : Complete Main
Default                                  : No
Forced                                   : No
Dialog Normalization                     : -31 dB
dialnorm_Average                         : -31 dB
dialnorm_Minimum                         : -31 dB
dialnorm_Maximum                         : -31 dB

Audio #3
ID                                       : 4
Format                                   : AC-3
Format/Info                              : Audio Coding 3
Commercial name                          : Dolby Digital
Codec ID                                 : A_AC3
Duration                                 : 1 h 57 min
Bit rate mode                            : Constant
Bit rate                                 : 640 kb/s
Channel(s)                               : 6 channels
Channel layout                           : L R C LFE Ls Rs
Sampling rate                            : 48.0 kHz
Frame rate                               : 31.250 FPS (1536 SPF)
Compression mode                         : Lossy
Stream size                              : 539 MiB (2%)
Title                                    : BTM DD 5.1
Language                                 : English

Service kind                             : Complete Main
Default                                  : No
Forced                                   : No
Dialog Normalization                     : -31 dB
cmixlev                                  : -4.5 dB
surmixlev                                : -6 dB
dialnorm_Average                         : -31 dB
dialnorm_Minimum                         : -31 dB
dialnorm_Maximum                         : -31 dB

Audio #4
ID                                       : 5
Format                                   : AC-3
Format/Info                              : Audio Coding 3
Commercial name                          : Dolby Digital
Codec ID                                 : A_AC3
Duration                                 : 1 h 57 min
Bit rate mode                            : Constant
Bit rate                                 : 640 kb/s
Channel(s)                               : 6 channels
Channel layout                           : L R C LFE Ls Rs
Sampling rate                            : 48.0 kHz
Frame rate                               : 31.250 FPS (1536 SPF)
Compression mode                         : Lossy
Stream size                              : 539 MiB (2%)
Title                                    : BTM DD 5.1
Language                                 : Spanish

Service kind                             : Complete Main
Default                                  : No
Forced                                   : No
Dialog Normalization                     : -31 dB
cmixlev                                  : -4.5 dB
surmixlev                                : -6 dB
dialnorm_Average                         : -31 dB
dialnorm_Minimum                         : -31 dB
dialnorm_Maximum                         : -31 dB

Audio #5
ID                                       : 6
Format                                   : AC-3
Format/Info                              : Audio Coding 3
Commercial name                          : Dolby Digital
Codec ID                                 : A_AC3
Duration                                 : 1 h 57 min
Bit rate mode                            : Constant
Bit rate                                 : 384 kb/s
Channel(s)                               : 6 channels
Channel layout                           : L R C LFE Ls Rs
Sampling rate                            : 48.0 kHz
Frame rate                               : 31.250 FPS (1536 SPF)
Compression mode                         : Lossy
Stream size                              : 324 MiB (1%)
Title                                    : BTM DD 5.1
Language                                 : Russian

Service kind                             : Complete Main
Default                                  : No
Forced                                   : No
Dialog Normalization                     : -27 dB
compr                                    : -0.28 dB
dynrng                                   : -1.48 dB
cmixlev                                  : -3.0 dB
surmixlev                                : -3 dB
mixlevel                                 : 285 dB
roomtyp                                  : Small
dialnorm_Average                         : -27 dB
dialnorm_Minimum                         : -27 dB
dialnorm_Maximum                         : -27 dB
YouTube Video:   
Category:Movies
Language:Dubs/Dual Audio
Total Size:25.58 GB
Info Hash:C53864AE161314EEA852AE818BA182632C97D0AB
Added By:Freddy1714 Verified Uploader
Date Added:2024-06-12 00:34:46
Torrent Status:Torrent Verified


Ratings:Not Yet Rated (Log in to rate it)


Tracker:
udp://tracker.opentrackr.org:1337/announce

This Torrent also has backup trackers
URLSeedersLeechersCompleted
udp://tracker.opentrackr.org:1337/announce4026214
udp://open.stealth.si:80/announce3218170
udp://tracker.torrent.eu.org:451/announce3421173
http://bt.okmp3.ru:2710/announce861
udp://6ahddutb1ucc3cp.ru:6969/announce000
https://tracker.tamersunion.org:443/announce880
http://tracker.vraphim.com:6969/announce9735
udp://tracker.cyberia.is:6969/announce330000
http://tracker2.dler.org:80/announce652
udp://exodus.desync.com:6969/announce11372
udp://tracker.tiny-vps.com:6969/announce154163


File List: 





Comments
No comments still posted