Download Drops Of God - S01.E07 - Food and Wine 1080p ATVP WebRip x265 DDP 5.1 Atmos Kira [SEV] torrent - GloDLS
Login
Username:
Password:
Remember Me:
[Signup]
[Recover Account]
Friends
Angie Torrents
Friendly Site

Get Into Way
Friendly site

Free Courses Online
Friendly site

KaranPC
Friendly site

OneHack
Friendly site

IGGGames
Friendly site

Torrent Details For "Drops Of God - S01.E07 - Food and Wine 1080p ATVP WebRip x265 DDP 5.1 Atmos Kira [SEV..."

Drops Of God - S01.E07 - Food and Wine 1080p ATVP WebRip x265 DDP 5.1 Atmos Kira [SEV...

To download this torrent, you need a BitTorrent client: Vuze or BTGuard
Download this torrent
Download using Magnet Link

Health:
Seeds: 54
Leechers: 11
Completed: 362 
Last Checked: 02-06-2023 05:17:18

Uploader Reputation points : 712





Write a Review for the Uploader:   10   Say Thanks with one good review:
Share on Facebook
TV Info

Drops of God (2023)

Camille, the daughter of the recently deceased Alexandre Léger, creator of the famous Léger Wine Guide and emblematic figure in enology, who passed away in his Tokyo home. When she travels to Tokyo in the wake of her father's death, she learns that he left her the greatest collection of wine in the world. In order to claim this inheritance, however, she must compete against a brilliant young oenologist, Issei Tomine, who her father took under his wing and is referred to in Léger’s will as his “spiritual son.”



Details
Name:Drops Of God - S01.E07 - Food and Wine 1080p ATVP WebRip x265 DDP 5.1 Atmos Kira [SEV...
Description:


Screenshot's



Media Information
General
Unique ID                   : 181166861443072661055673218356027412908 (0x884B77E5064655C7CF70E8E7F0E551AC)
Complete name               : Drops Of God - S01.E07 - Food and Wine 1080p ATVP WebRip x265 DDP 5.1 Atmos Kira [SEV].mkv
Format                      : Matroska
Format version              : Version 4
File size                   : 1.93 GiB
Duration                    : 50 min 7 s
Overall bit rate            : 5 512 kb/s
Frame rate                  : 23.976 FPS
Movie name                  : Drops Of God : S01.E07 : Food and Wine
Encoded date                : 2023-05-26 06:31:35 UTC
Writing application         : mkvmerge v76.0 ('Celebration') 64-bit
Writing library             : libebml v1.4.4 + libmatroska v1.7.1

Video
ID                          : 1
Format                      : HEVC
Format/Info                 : High Efficiency Video Coding
Format profile              : Main 10@L4@Main
Codec ID                    : V_MPEGH/ISO/HEVC
Duration                    : 50 min 7 s
Bit rate                    : 4 738 kb/s
Width                       : 1 920 pixels
Height                      : 804 pixels
Display aspect ratio        : 2.40:1
Frame rate mode             : Constant
Frame rate                  : 23.976 (24000/1001) FPS
Color space                 : YUV
Chroma subsampling          : 4:2:0
Bit depth                   : 10 bits
Bits/(Pixel*Frame)          : 0.128
Stream size                 : 1.66 GiB (86%)
Title                       : Drops Of God : S01.E07 : Food and Wine
Writing library             : x265 3.5+96-c07d076cf:[Windows][MSVC 1935][64 bit] 10bit
Encoding settings           : cpuid=1111039 / frame-threads=4 / numa-pools=16 / wpp / no-pmode / no-pme / no-psnr / no-ssim / log-level=2 / input-csp=1 / input-res=1920x804 / interlace=0 / total-frames=72114 / level-idc=0 / high-tier=1 / uhd-bd=0 / ref=4 / no-allow-non-conformance / no-repeat-headers / annexb / no-aud / no-eob / no-eos / no-hrd / info / hash=0 / temporal-layers=0 / open-gop / min-keyint=23 / keyint=250 / gop-lookahead=0 / bframes=8 / b-adapt=2 / b-pyramid / bframe-bias=0 / rc-lookahead=100 / lookahead-slices=4 / scenecut=40 / no-hist-scenecut / radl=0 / no-splice / no-intra-refresh / ctu=64 / min-cu-size=8 / no-rect / no-amp / max-tu-size=32 / tu-inter-depth=1 / tu-intra-depth=1 / limit-tu=0 / rdoq-level=2 / dynamic-rd=0.00 / no-ssim-rd / signhide / no-tskip / nr-intra=0 / nr-inter=0 / no-constrained-intra / no-strong-intra-smoothing / max-merge=3 / limit-refs=3 / limit-modes / me=3 / subme=7 / merange=92 / temporal-mvp / no-frame-dup / no-hme / weightp / no-weightb / no-analyze-src-pics / deblock=-3:-3 / sao / no-sao-non-deblock / rd=4 / selective-sao=4 / no-early-skip / rskip / no-fast-intra / no-tskip-fast / no-cu-lossless / no-b-intra / no-splitrd-skip / rdpenalty=0 / psy-rd=1.30 / psy-rdoq=1.00 / no-rd-refine / no-lossless / cbqpoffs=0 / crqpoffs=0 / rc=crf / crf=18.0 / qcomp=0.60 / qpstep=4 / stats-write=0 / stats-read=0 / ipratio=1.40 / pbratio=1.30 / aq-mode=3 / aq-strength=1.00 / cutree / zone-count=0 / no-strict-cbr / qg-size=32 / no-rc-grain / qpmax=69 / qpmin=0 / no-const-vbv / sar=0 / overscan=0 / videoformat=5 / range=0 / colorprim=2 / transfer=2 / colormatrix=2 / chromaloc=0 / display-window=0 / cll=0,0 / min-luma=0 / max-luma=1023 / log2-max-poc-lsb=8 / vui-timing-info / vui-hrd-info / slices=1 / no-opt-qp-pps / no-opt-ref-list-length-pps / no-multi-pass-opt-rps / scenecut-bias=0.05 / no-opt-cu-delta-qp / no-aq-motion / no-hdr10 / no-hdr10-opt / no-dhdr10-opt / no-idr-recovery-sei / analysis-reuse-level=0 / analysis-save-reuse-level=0 / analysis-load-reuse-level=0 / scale-factor=0 / refine-intra=0 / refine-inter=0 / refine-mv=1 / refine-ctu-distortion=0 / no-limit-sao / ctu-info=0 / no-lowpass-dct / refine-analysis-type=0 / copy-pic=1 / max-ausize-factor=1.0 / no-dynamic-refine / no-single-sei / no-hevc-aq / no-svt / no-field / qp-adaptation-range=1.00 / scenecut-aware-qp=0conformance-window-offsets / right=0 / bottom=0 / decoder-max-rate=0 / no-vbv-live-multi-pass / no-mcstf / no-sbrc
Language                    : French (FR)
Default                     : Yes
Forced                      : No

Audio
ID                          : 2
Format                      : E-AC-3 JOC
Format/Info                 : Enhanced AC-3 with Joint Object Coding
Commercial name             : Dolby Digital Plus with Dolby Atmos
Codec ID                    : A_EAC3
Duration                    : 50 min 7 s
Bit rate mode               : Constant
Bit rate                    : 768 kb/s
Channel(s)                  : 6 channels
Channel layout              : L R C LFE Ls Rs
Sampling rate               : 48.0 kHz
Frame rate                  : 31.250 FPS (1536 SPF)
Compression mode            : Lossy
Stream size                 : 275 MiB (14%)
Title                       : French (France) E-AC-3 DDP 5.1 Atmos @ 768 Kbps
Language                    : French (FR)
Service kind                : Complete Main
Default                     : Yes
Forced                      : No
Complexity index            : 16
Number of dynamic objects   : 15
Bed channel count           : 1 channel
Bed channel configuration   : LFE

Text #1
ID                          : 3
Format                      : UTF-8
Codec ID                    : S_TEXT/UTF8
Codec ID/Info               : UTF-8 Plain Text
Duration                    : 49 min 45 s
Bit rate                    : 46 b/s
Frame rate                  : 0.206 FPS
Count of elements           : 616
Stream size                 : 17.0 KiB (0%)
Title                       : French (France) (SDH)
Language                    : French (FR)
Default                     : No
Forced                      : No

Text #2
ID                          : 4
Format                      : UTF-8
Codec ID                    : S_TEXT/UTF8
Codec ID/Info               : UTF-8 Plain Text
Duration                    : 49 min 49 s
Bit rate                    : 41 b/s
Frame rate                  : 0.179 FPS
Count of elements           : 536
Stream size                 : 15.1 KiB (0%)
Title                       : French (France)
Language                    : French (FR)
Default                     : No
Forced                      : No

Text #3
ID                          : 5
Format                      : UTF-8
Codec ID                    : S_TEXT/UTF8
Codec ID/Info               : UTF-8 Plain Text
Duration                    : 48 min 10 s
Bit rate                    : 36 b/s
Frame rate                  : 0.162 FPS
Count of elements           : 467
Stream size                 : 12.8 KiB (0%)
Title                       : French (France) (Forced)
Language                    : French (FR)
Default                     : No
Forced                      : No

Text #4
ID                          : 6
Format                      : UTF-8
Codec ID                    : S_TEXT/UTF8
Codec ID/Info               : UTF-8 Plain Text
Duration                    : 48 min 51 s
Bit rate                    : 47 b/s
Frame rate                  : 0.195 FPS
Count of elements           : 573
Stream size                 : 17.2 KiB (0%)
Title                       : English SDH SRT
Language                    : English
Default                     : Yes
Forced                      : No

Text #5
ID                          : 7
Format                      : UTF-8
Codec ID                    : S_TEXT/UTF8
Codec ID/Info               : UTF-8 Plain Text
Duration                    : 48 min 8 s
Bit rate                    : 42 b/s
Frame rate                  : 0.169 FPS
Count of elements           : 487
Stream size                 : 14.8 KiB (0%)
Title                       : English SRT
Language                    : English
Default                     : No
Forced                      : No

Text #6
ID                          : 8
Format                      : UTF-8
Codec ID                    : S_TEXT/UTF8
Codec ID/Info               : UTF-8 Plain Text
Duration                    : 49 min 44 s
Bit rate                    : 57 b/s
Frame rate                  : 0.165 FPS
Count of elements           : 492
Stream size                 : 21.0 KiB (0%)
Language                    : Arabic
Default                     : No
Forced                      : No

Text #7
ID                          : 9
Format                      : UTF-8
Codec ID                    : S_TEXT/UTF8
Codec ID/Info               : UTF-8 Plain Text
Duration                    : 49 min 44 s
Bit rate                    : 67 b/s
Frame rate                  : 0.131 FPS
Count of elements           : 390
Stream size                 : 24.5 KiB (0%)
Language                    : Bulgarian
Default                     : No
Forced                      : No

Text #8
ID                          : 10
Format                      : UTF-8
Codec ID                    : S_TEXT/UTF8
Codec ID/Info               : UTF-8 Plain Text
Duration                    : 49 min 44 s
Bit rate                    : 39 b/s
Frame rate                  : 0.165 FPS
Count of elements           : 493
Stream size                 : 14.3 KiB (0%)
Title                       : Chinese (Simplified)
Language                    : Mandarin (Hans)
Default                     : No
Forced                      : No

Text #9
ID                          : 11
Format                      : UTF-8
Codec ID                    : S_TEXT/UTF8
Codec ID/Info               : UTF-8 Plain Text
Duration                    : 49 min 46 s
Bit rate                    : 36 b/s
Frame rate                  : 0.165 FPS
Count of elements           : 494
Stream size                 : 13.4 KiB (0%)
Title                       : Chinese (Traditional)
Language                    : Mandarin (Hant)
Default                     : No
Forced                      : No

Text #10
ID                          : 12
Format                      : UTF-8
Codec ID                    : S_TEXT/UTF8
Codec ID/Info               : UTF-8 Plain Text
Duration                    : 49 min 46 s
Bit rate                    : 37 b/s
Frame rate                  : 0.158 FPS
Count of elements           : 472
Stream size                 : 13.6 KiB (0%)
Language                    : Czech
Default                     : No
Forced                      : No

Text #11
ID                          : 13
Format                      : UTF-8
Codec ID                    : S_TEXT/UTF8
Codec ID/Info               : UTF-8 Plain Text
Duration                    : 49 min 44 s
Bit rate                    : 39 b/s
Frame rate                  : 0.139 FPS
Count of elements           : 416
Stream size                 : 14.2 KiB (0%)
Language                    : Danish
Default                     : No
Forced                      : No

Text #12
ID                          : 14
Format                      : UTF-8
Codec ID                    : S_TEXT/UTF8
Codec ID/Info               : UTF-8 Plain Text
Duration                    : 49 min 45 s
Bit rate                    : 44 b/s
Frame rate                  : 0.160 FPS
Count of elements           : 478
Stream size                 : 16.4 KiB (0%)
Language                    : German
Default                     : No
Forced                      : No

Text #13
ID                          : 15
Format                      : UTF-8
Codec ID                    : S_TEXT/UTF8
Codec ID/Info               : UTF-8 Plain Text
Duration                    : 49 min 46 s
Bit rate                    : 74 b/s
Frame rate                  : 0.158 FPS
Count of elements           : 473
Stream size                 : 27.2 KiB (0%)
Language                    : Greek
Default                     : No
Forced                      : No

Text #14
ID                          : 16
Format                      : UTF-8
Codec ID                    : S_TEXT/UTF8
Codec ID/Info               : UTF-8 Plain Text
Duration                    : 49 min 46 s
Bit rate                    : 38 b/s
Frame rate                  : 0.164 FPS
Count of elements           : 490
Stream size                 : 14.2 KiB (0%)
Title                       : Spanish (Latin America)
Language                    : Spanish (Latin America)
Default                     : No
Forced                      : No

Text #15
ID                          : 17
Format                      : UTF-8
Codec ID                    : S_TEXT/UTF8
Codec ID/Info               : UTF-8 Plain Text
Duration                    : 49 min 46 s
Bit rate                    : 42 b/s
Frame rate                  : 0.163 FPS
Count of elements           : 488
Stream size                 : 15.4 KiB (0%)
Title                       : Spanish (Spain)
Language                    : Spanish (ES)
Default                     : No
Forced                      : No

Text #16
ID                          : 18
Format                      : UTF-8
Codec ID                    : S_TEXT/UTF8
Codec ID/Info               : UTF-8 Plain Text
Duration                    : 49 min 44 s
Bit rate                    : 38 b/s
Frame rate                  : 0.158 FPS
Count of elements           : 472
Stream size                 : 14.0 KiB (0%)
Language                    : Estonian
Default                     : No
Forced                      : No

Text #17
ID                          : 19
Format                      : UTF-8
Codec ID                    : S_TEXT/UTF8
Codec ID/Info               : UTF-8 Plain Text
Duration                    : 49 min 44 s
Bit rate                    : 40 b/s
Frame rate                  : 0.156 FPS
Count of elements           : 465
Stream size                 : 14.9 KiB (0%)
Language                    : Finnish
Default                     : No
Forced                      : No

Text #18
ID                          : 20
Format                      : UTF-8
Codec ID                    : S_TEXT/UTF8
Codec ID/Info               : UTF-8 Plain Text
Duration                    : 49 min 49 s
Bit rate                    : 41 b/s
Frame rate                  : 0.179 FPS
Count of elements           : 536
Stream size                 : 15.1 KiB (0%)
Title                       : French (Canada)
Language                    : French (CA)
Default                     : No
Forced                      : No

Text #19
ID                          : 21
Format                      : UTF-8
Codec ID                    : S_TEXT/UTF8
Codec ID/Info               : UTF-8 Plain Text
Duration                    : 49 min 44 s
Bit rate                    : 53 b/s
Frame rate                  : 0.165 FPS
Count of elements           : 493
Stream size                 : 19.5 KiB (0%)
Language                    : Hebrew
Default                     : No
Forced                      : No

Text #20
ID                          : 22
Format                      : UTF-8
Codec ID                    : S_TEXT/UTF8
Codec ID/Info               : UTF-8 Plain Text
Duration                    : 49 min 46 s
Bit rate                    : 112 b/s
Frame rate                  : 0.166 FPS
Count of elements           : 495
Stream size                 : 41.2 KiB (0%)
Language                    : Hindi
Default                     : No
Forced                      : No

Text #21
ID                          : 23
Format                      : UTF-8
Codec ID                    : S_TEXT/UTF8
Codec ID/Info               : UTF-8 Plain Text
Duration                    : 49 min 46 s
Bit rate                    : 42 b/s
Frame rate                  : 0.165 FPS
Count of elements           : 493
Stream size                 : 15.4 KiB (0%)
Language                    : Hungarian
Default                     : No
Forced                      : No

Text #22
ID                          : 24
Format                      : UTF-8
Codec ID                    : S_TEXT/UTF8
Codec ID/Info               : UTF-8 Plain Text
Duration                    : 49 min 44 s
Bit rate                    : 40 b/s
Frame rate                  : 0.165 FPS
Count of elements           : 491
Stream size                 : 14.9 KiB (0%)
Language                    : Indonesian
Default                     : No
Forced                      : No

Text #23
ID                          : 25
Format                      : UTF-8
Codec ID                    : S_TEXT/UTF8
Codec ID/Info               : UTF-8 Plain Text
Duration                    : 49 min 43 s
Bit rate                    : 41 b/s
Frame rate                  : 0.169 FPS
Count of elements           : 504
Stream size                 : 15.0 KiB (0%)
Language                    : Italian
Default                     : No
Forced                      : No

Text #24
ID                          : 26
Format                      : UTF-8
Codec ID                    : S_TEXT/UTF8
Codec ID/Info               : UTF-8 Plain Text
Duration                    : 49 min 49 s
Bit rate                    : 44 b/s
Frame rate                  : 0.157 FPS
Count of elements           : 469
Stream size                 : 16.1 KiB (0%)
Language                    : Japanese
Default                     : No
Forced                      : No

Text #25
ID                          : 27
Format                      : UTF-8
Codec ID                    : S_TEXT/UTF8
Codec ID/Info               : UTF-8 Plain Text
Duration                    : 49 min 46 s
Bit rate                    : 45 b/s
Frame rate                  : 0.165 FPS
Count of elements           : 494
Stream size                 : 16.7 KiB (0%)
Language                    : Korean
Default                     : No
Forced                      : No

Text #26
ID                          : 28
Format                      : UTF-8
Codec ID                    : S_TEXT/UTF8
Codec ID/Info               : UTF-8 Plain Text
Duration                    : 49 min 44 s
Bit rate                    : 41 b/s
Frame rate                  : 0.165 FPS
Count of elements           : 491
Stream size                 : 15.0 KiB (0%)
Language                    : Lithuanian
Default                     : No
Forced                      : No

Text #27
ID                          : 29
Format                      : UTF-8
Codec ID                    : S_TEXT/UTF8
Codec ID/Info               : UTF-8 Plain Text
Duration                    : 49 min 44 s
Bit rate                    : 42 b/s
Frame rate                  : 0.162 FPS
Count of elements           : 483
Stream size                 : 15.3 KiB (0%)
Language                    : Latvian
Default                     : No
Forced                      : No

Text #28
ID                          : 30
Format                      : UTF-8
Codec ID                    : S_TEXT/UTF8
Codec ID/Info               : UTF-8 Plain Text
Duration                    : 49 min 44 s
Bit rate                    : 40 b/s
Frame rate                  : 0.164 FPS
Count of elements           : 490
Stream size                 : 14.9 KiB (0%)
Language                    : Malay
Default                     : No
Forced                      : No

Text #29
ID                          : 31
Format                      : UTF-8
Codec ID                    : S_TEXT/UTF8
Codec ID/Info               : UTF-8 Plain Text
Duration                    : 49 min 44 s
Bit rate                    : 40 b/s
Frame rate                  : 0.138 FPS
Count of elements           : 411
Stream size                 : 14.8 KiB (0%)
Language                    : Dutch
Default                     : No
Forced                      : No

Text #30
ID                          : 32
Format                      : UTF-8
Codec ID                    : S_TEXT/UTF8
Codec ID/Info               : UTF-8 Plain Text
Duration                    : 49 min 44 s
Bit rate                    : 39 b/s
Frame rate                  : 0.150 FPS
Count of elements           : 447
Stream size                 : 14.3 KiB (0%)
Language                    : Norwegian
Default                     : No
Forced                      : No

Text #31
ID                          : 33
Format                      : UTF-8
Codec ID                    : S_TEXT/UTF8
Codec ID/Info               : UTF-8 Plain Text
Duration                    : 49 min 46 s
Bit rate                    : 41 b/s
Frame rate                  : 0.164 FPS
Count of elements           : 491
Stream size                 : 15.2 KiB (0%)
Language                    : Polish
Default                     : No
Forced                      : No

Text #32
ID                          : 34
Format                      : UTF-8
Codec ID                    : S_TEXT/UTF8
Codec ID/Info               : UTF-8 Plain Text
Duration                    : 49 min 46 s
Bit rate                    : 41 b/s
Frame rate                  : 0.164 FPS
Count of elements           : 489
Stream size                 : 15.0 KiB (0%)
Title                       : Portuguese
Language                    : Portuguese
Default                     : No
Forced                      : No

Text #33
ID                          : 35
Format                      : UTF-8
Codec ID                    : S_TEXT/UTF8
Codec ID/Info               : UTF-8 Plain Text
Duration                    : 49 min 46 s
Bit rate                    : 38 b/s
Frame rate                  : 0.165 FPS
Count of elements           : 493
Stream size                 : 14.1 KiB (0%)
Title                       : Portuguese (Brazil)
Language                    : Portuguese (BR)
Default                     : No
Forced                      : No

Text #34
ID                          : 36
Format                      : UTF-8
Codec ID                    : S_TEXT/UTF8
Codec ID/Info               : UTF-8 Plain Text
Duration                    : 49 min 46 s
Bit rate                    : 66 b/s
Frame rate                  : 0.163 FPS
Count of elements           : 487
Stream size                 : 24.3 KiB (0%)
Language                    : Russian
Default                     : No
Forced                      : No

Text #35
ID                          : 37
Format                      : UTF-8
Codec ID                    : S_TEXT/UTF8
Codec ID/Info               : UTF-8 Plain Text
Duration                    : 49 min 46 s
Bit rate                    : 40 b/s
Frame rate                  : 0.165 FPS
Count of elements           : 493
Stream size                 : 14.7 KiB (0%)
Language                    : Slovak
Default                     : No
Forced                      : No

Text #36
ID                          : 38
Format                      : UTF-8
Codec ID                    : S_TEXT/UTF8
Codec ID/Info               : UTF-8 Plain Text
Duration                    : 49 min 44 s
Bit rate                    : 34 b/s
Frame rate                  : 0.144 FPS
Count of elements           : 431
Stream size                 : 12.6 KiB (0%)
Language                    : Slovenian
Default                     : No
Forced                      : No

Text #37
ID                          : 39
Format                      : UTF-8
Codec ID                    : S_TEXT/UTF8
Codec ID/Info               : UTF-8 Plain Text
Duration                    : 49 min 44 s
Bit rate                    : 40 b/s
Frame rate                  : 0.165 FPS
Count of elements           : 492
Stream size                 : 14.9 KiB (0%)
Language                    : Swedish
Default                     : No
Forced                      : No

Text #38
ID                          : 40
Format                      : UTF-8
Codec ID                    : S_TEXT/UTF8
Codec ID/Info               : UTF-8 Plain Text
Duration                    : 49 min 44 s
Bit rate                    : 125 b/s
Frame rate                  : 0.166 FPS
Count of elements           : 494
Stream size                 : 45.8 KiB (0%)
Language                    : Tamil
Default                     : No
Forced                      : No

Text #39
ID                          : 41
Format                      : UTF-8
Codec ID                    : S_TEXT/UTF8
Codec ID/Info               : UTF-8 Plain Text
Duration                    : 49 min 44 s
Bit rate                    : 124 b/s
Frame rate                  : 0.166 FPS
Count of elements           : 494
Stream size                 : 45.5 KiB (0%)
Language                    : Telugu
Default                     : No
Forced                      : No

Text #40
ID                          : 42
Format                      : UTF-8
Codec ID                    : S_TEXT/UTF8
Codec ID/Info               : UTF-8 Plain Text
Duration                    : 49 min 44 s
Bit rate                    : 101 b/s
Frame rate                  : 0.165 FPS
Count of elements           : 493
Stream size                 : 36.8 KiB (0%)
Language                    : Thai
Default                     : No
Forced                      : No

Text #41
ID                          : 43
Format                      : UTF-8
Codec ID                    : S_TEXT/UTF8
Codec ID/Info               : UTF-8 Plain Text
Duration                    : 49 min 44 s
Bit rate                    : 41 b/s
Frame rate                  : 0.164 FPS
Count of elements           : 488
Stream size                 : 15.0 KiB (0%)
Language                    : Turkish
Default                     : No
Forced                      : No

Text #42
ID                          : 44
Format                      : UTF-8
Codec ID                    : S_TEXT/UTF8
Codec ID/Info               : UTF-8 Plain Text
Duration                    : 49 min 46 s
Bit rate                    : 66 b/s
Frame rate                  : 0.166 FPS
Count of elements           : 495
Stream size                 : 24.2 KiB (0%)
Language                    : Ukrainian
Default                     : No
Forced                      : No

Text #43
ID                          : 45
Format                      : UTF-8
Codec ID                    : S_TEXT/UTF8
Codec ID/Info               : UTF-8 Plain Text
Duration                    : 49 min 46 s
Bit rate                    : 54 b/s
Frame rate                  : 0.165 FPS
Count of elements           : 493
Stream size                 : 19.7 KiB (0%)
Language                    : Vietnamese
Default                     : No
Forced                      : No

Text #44
ID                          : 46
Format                      : UTF-8
Codec ID                    : S_TEXT/UTF8
Codec ID/Info               : UTF-8 Plain Text
Duration                    : 49 min 46 s
Bit rate                    : 32 b/s
Frame rate                  : 0.165 FPS
Count of elements           : 494
Stream size                 : 12.0 KiB (0%)
Title                       : Cantonese (Traditional)
Language                    : Cantonese (Hant)
Default                     : No
Forced                      : No


Source Information
Drops.of.God.2023.S01E07.Food.and.Wine.1080p.ATVP.WEB-DL.DDP5.1.H.264-NTb (3.78 GB)


We have no issue with individuals posting or re-uploading our torrents on a platform we aren't on. However, if this is something you'd like to do, please do so in a 'as-is' format. We ask that you do not create a new torrent, include all descriptions you see above including the SEV logo, tags, notes and screenshots. If you'd like to become a permanent poster on a website we don't post to, feel free to get in contact with a Sublime Encoded Video member.

We are recruiting/training new members for SEV & seedbox providers as well as people to help out with subtitles.
As you already know, we deliver quality, so you know the standard.
If you're interested, feel free to contact any of the team members.



YouTube Video:   
Category:TV
Language:French  French
Total Size:1.93 GB
Info Hash:2DF893B2F4E8F6C2D884168AD3AEEC5697B80B71
Added By:SEVreleases Verified Uploader
Date Added:2023-05-26 16:10:54
Torrent Status:Torrent Verified by Prom3th3uS Super AdministratorMovie PirateVIP on 4th June, 2023


Ratings:Not Yet Rated (Log in to rate it)


Tracker:
udp://tracker.opentrackr.org:1337/announce

This Torrent also has backup trackers
URLSeedersLeechersCompleted
udp://tracker.opentrackr.org:1337/announce63106
http://tracker.opentrackr.org:1337/announce63106
udp://movies.zsw.ca:6969/announce6173
udp://tracker.altrosky.nl:6969/announce6167
udp://opentracker.i2p.rocks:6969/announce612
udp://tracker.auctor.tv:6969/announce611
http://open.acgnxtracker.com:80/announce610
udp://tracker.moeking.me:6969/announce607
udp://tracker.leech.ie:1337/announce600
https://opentracker.i2p.rocks:443/announce000


File List: 





Comments
No comments still posted