Download Early Edition (1996) Season 1-4 S01-04 (480p DVD x265 10bit AC3 2 0 EDGE2020) torrent - GloDLS
Torrent Details For "Early Edition (1996) Season 1-4 S01-04 (480p DVD x265 10bit AC3 2 0 EDGE2020)"

Early Edition (1996) Season 1-4 S01-04 (480p DVD x265 10bit AC3 2 0 EDGE2020)

To download this torrent, you need a BitTorrent client: Vuze or BTGuard
Download this torrent
Download using Magnet Link

Health:
Seeds: 1
Leechers: 0
Completed:
Last Checked: 23-06-2022 12:34:57

Uploader Reputation points : 146





Write a Review for the Uploader:   0   Say Thanks with one good review:
Share on Facebook


Details
Name:Early Edition (1996) Season 1-4 S01-04 (480p DVD x265 10bit AC3 2 0 EDGE2020)
Description:
Early Edition (1996) - Season 1-4 - 480p x265 10bit AC3 2.0

Encoded by EDGE2020
TorrentGalaxy - 1337x
Have a request? Send me a PM on TorrentGalaxy.

Encoder Note
First 2 season's have subs, the 3/4th didn't on the DVDs. Following TVDB Naming.

Show Info
His name is Gary Hobson. He gets tomorrow's newspaper today. He doesn't know how. He doesn't know why. All he knows is when the early edition hits his doorstep, he has twenty-four hours to set things right.

IMDb (7.5/10)











Source Information

Quote:

DVD

Media Information
English Subtitles included in SRT. No subs for Season 3/4 :(


Quote:

General
Unique ID                                : 2612015610884161484092689749424049647 (0x1F70E4FFCF13B421C950A62046D8DEF)
Complete name                            : Early Edition (1996) Season 1-4 S01-04 (480p DVD x265 10bit AC3 2.0 EDGE2020)\Season 1\Early Edition - S01E01 - Pilot (480p x265 EDGE2020).mkv
Format                                   : Matroska
Format version                           : Version 4
File size                                : 434 MiB
Duration                                 : 44 min 32 s
Overall bit rate                         : 1 364 kb/s
Writing application                      : mkvmerge v68.0.0 ('The Curtain') 64-bit
Writing library                          : libebml v1.4.2 + libmatroska v1.6.4

Video
ID                                       : 1
Format                                   : HEVC
Format/Info                              : High Efficiency Video Coding
Format profile                           : Main [email protected]@Main
Codec ID                                 : V_MPEGH/ISO/HEVC
Duration                                 : 44 min 32 s
Bit rate                                 : 1 170 kb/s
Width                                    : 710 pixels
Height                                   : 480 pixels
Display aspect ratio                     : 4:3
Frame rate mode                          : Constant
Frame rate                               : 29.970 (30000/1001) FPS
Color space                              : YUV
Chroma subsampling                       : 4:2:0 (Type 0)
Bit depth                                : 10 bits
Bits/(Pixel*Frame)                       : 0.115
Stream size                              : 373 MiB (86%)
Writing library                          : x265 3.5+1-f0c1022b6:[Windows][GCC 10.2.0][64 bit] 10bit
Encoding settings                        : cpuid=1111039 / frame-threads=4 / numa-pools=16 / wpp / no-pmode / no-pme / no-psnr / no-ssim / log-level=2 / input-csp=1 / input-res=710x480 / interlace=0 / total-frames=0 / level-idc=0 / high-tier=1 / uhd-bd=0 / ref=4 / no-allow-non-conformance / no-repeat-headers / annexb / no-aud / no-hrd / info / hash=0 / no-temporal-layers / open-gop / min-keyint=30 / keyint=300 / gop-lookahead=0 / bframes=4 / b-adapt=2 / b-pyramid / bframe-bias=0 / rc-lookahead=25 / lookahead-slices=0 / scenecut=40 / hist-scenecut=0 / radl=0 / no-splice / no-intra-refresh / ctu=64 / min-cu-size=8 / no-rect / no-amp / max-tu-size=32 / tu-inter-depth=1 / tu-intra-depth=1 / limit-tu=0 / rdoq-level=2 / dynamic-rd=0.00 / no-ssim-rd / signhide / no-tskip / nr-intra=0 / nr-inter=0 / no-constrained-intra / no-strong-intra-smoothing / max-merge=3 / limit-refs=3 / limit-modes / me=3 / subme=3 / merange=57 / temporal-mvp / no-frame-dup / no-hme / weightp / no-weightb / no-analyze-src-pics / deblock=0:0 / sao / no-sao-non-deblock / rd=4 / selective-sao=4 / no-early-skip / rskip / no-fast-intra / no-tskip-fast / no-cu-lossless / no-b-intra / no-splitrd-skip / rdpenalty=0 / psy-rd=2.00 / psy-rdoq=1.00 / no-rd-refine / no-lossless / cbqpoffs=0 / crqpoffs=0 / rc=crf / crf=22.0 / qcomp=0.60 / qpstep=4 / stats-write=0 / stats-read=0 / ipratio=1.40 / pbratio=1.30 / aq-mode=1 / aq-strength=1.00 / cutree / zone-count=0 / no-strict-cbr / qg-size=32 / no-rc-grain / qpmax=69 / qpmin=0 / no-const-vbv / sar=255 / sar-width / : / sar-height=8:9 / overscan=0 / videoformat=5 / range=0 / colorprim=6 / transfer=1 / colormatrix=6 / chromaloc=1 / chromaloc-top=0 / chromaloc-bottom=0 / display-window=0 / cll=0,0 / min-luma=0 / max-luma=1023 / log2-max-poc-lsb=8 / vui-timing-info / vui-hrd-info / slices=1 / no-opt-qp-pps / no-opt-ref-list-length-pps / no-multi-pass-opt-rps / scenecut-bias=0.05 / hist-threshold=0.03 / no-opt-cu-delta-qp / no-aq-motion / no-hdr10 / no-hdr10-opt / no-dhdr10-opt / no-idr-recovery-sei / analysis-reuse-level=0 / analysis-save-reuse-level=0 / analysis-load-reuse-level=0 / scale-factor=0 / refine-intra=0 / refine-inter=0 / refine-mv=1 / refine-ctu-distortion=0 / no-limit-sao / ctu-info=0 / no-lowpass-dct / refine-analysis-type=0 / copy-pic=1 / max-ausize-factor=1.0 / no-dynamic-refine / no-single-sei / no-hevc-aq / no-svt / no-field / qp-adaptation-range=1.00 / scenecut-aware-qp=0conformance-window-offsets / right=0 / bottom=0 / decoder-max-rate=0 / no-vbv-live-multi-pass
Default                                  : Yes
Forced                                   : No
Color range                              : Limited
Color primaries                          : BT.601 NTSC
Transfer characteristics                 : BT.709
Matrix coefficients                      : BT.601

Audio
ID                                       : 2
Format                                   : AC-3
Format/Info                              : Audio Coding 3
Commercial name                          : Dolby Digital
Format settings                          : Dolby Surround
Codec ID                                 : A_AC3
Duration                                 : 44 min 32 s
Bit rate mode                            : Constant
Bit rate                                 : 192 kb/s
Channel(s)                               : 2 channels
Channel layout                           : L R
Sampling rate                            : 48.0 kHz
Frame rate                               : 31.250 FPS (1536 SPF)
Compression mode                         : Lossy
Stream size                              : 61.2 MiB (14%)
Language                                 : English
Service kind                             : Complete Main
Default                                  : Yes
Forced                                   : No

YouTube Video:
Category:TV
Language:English  English
Total Size:23.97 GB
Info Hash:4B2CDCA6D327716591FD7131A20770D0B055109F
Added By:EDGE2020
Date Added:2022-06-23 19:34:51
Torrent Status:Torrent Verified by Prom3th3uS Super AdministratorMovie PirateVIP on 23rd June, 2022


Ratings:Not Yet Rated (Log in to rate it)


Tracker:
udp://tracker.opentrackr.org:1337/announce

This Torrent also has backup trackers
URLSeedersLeechersCompleted
udp://tracker.opentrackr.org:1337/announce000
udp://tracker.openbittorrent.com:6969/announce000
udp://tracker.torrent.eu.org:451/announce000
udp://open.stealth.si:80/announce000


File List: 





Comments
No comments still posted