Download Eternals (2021) 720p English True WEB-HDRip x264 AAC DD 5 1 ESub By Full4Movies mkv torrent - GloDLS
HTML tutorial
Torrent Details For "Eternals (2021) 720p English True WEB-HDRip x264 AAC DD 5 1 ESub By Full4Movies mkv"

Eternals (2021) 720p English True WEB-HDRip x264 AAC DD 5 1 ESub By Full4Movies mkv

To download this torrent, you need a BitTorrent client: Vuze or BTGuard
Download this torrent
Download using Magnet Link

Health:
Seeds: 495
Leechers: 804
Completed: 3,540 
Last Checked: 12-01-2022 06:04:01

Uploader Reputation points : 7282





Write a Review for the Uploader:   10   Say Thanks with one good review:
Share on Facebook


Details
Name:Eternals (2021) 720p English True WEB-HDRip x264 AAC DD 5 1 ESub By Full4Movies mkv
Description:


Visit Us = https://www.full4movies.sbs/



General
Complete name                  : Eternals (2021) 720p English True WEB-HDRip x264 AAC DD 5.1 ESub By Full4Movies.mkv
Format                         : Matroska
Format version                 : Version 4
File size                      : 1.26 GiB
Duration                       : 2 h 35 min
Overall bit rate               : 1 158 kb/s
Encoded date                   : UTC 2022-01-11 14:03:24
Writing application            : mkvmerge v8.3.0 ('Over the Horizon') 64bit
Writing library                : libebml v1.3.1 + libmatroska v1.4.2
Attachments                    : 383845052472320.jpg

Video
ID                             : 1
Format                         : AVC
Format/Info                    : Advanced Video Codec
Format profile                 : [email protected]
Format settings                : CABAC / 4 Ref Frames
Format settings, CABAC         : Yes
Format settings, Reference fra : 4 frames
Codec ID                       : V_MPEG4/ISO/AVC
Duration                       : 2 h 35 min
Bit rate                       : 906 kb/s
Width                          : 1 280 pixels
Height                         : 536 pixels
Display aspect ratio           : 2.40:1
Frame rate mode                : Constant
Frame rate                     : 23.976 (24000/1001) FPS
Color space                    : YUV
Chroma subsampling             : 4:2:0
Bit depth                      : 8 bits
Scan type                      : Progressive
Bits/(Pixel*Frame)             : 0.055
Stream size                    : 1 005 MiB (78%)
Writing library                : x264 core 157 r2935 545de2f
Language                       : English
Default                        : Yes
Forced                         : No

Audio #1
ID                             : 2
Format                         : AC-3
Format/Info                    : Audio Coding 3
Commercial name                : Dolby Digital
Codec ID                       : A_AC3
Duration                       : 2 h 35 min
Bit rate mode                  : Constant
Bit rate                       : 192 kb/s
Channel(s)                     : 6 channels
Channel layout                 : L R C LFE Ls Rs
Sampling rate                  : 48.0 kHz
Frame rate                     : 31.250 FPS (1536 SPF)
Compression mode               : Lossy
Stream size                    : 214 MiB (17%)
Language                       : English
Service kind                   : Complete Main
Default                        : Yes
Forced                         : No

Audio #2
ID                             : 3
Format                         : AAC LC
Format/Info                    : Advanced Audio Codec Low Complexity
Codec ID                       : A_AAC-2
Duration                       : 2 h 35 min
Bit rate                       : 61.4 kb/s
Channel(s)                     : 2 channels
Channel layout                 : L R
Sampling rate                  : 48.0 kHz
Frame rate                     : 46.875 FPS (1024 SPF)
Compression mode               : Lossy
Stream size                    : 68.4 MiB (5%)
Language                       : English
Default                        : No
Forced                         : No

Text #1
ID                             : 4
Format                         : UTF-8
Codec ID                       : S_TEXT/UTF8
Codec ID/Info                  : UTF-8 Plain Text
Duration                       : 2 h 33 min
Bit rate                       : 51 b/s
Count of elements              : 2211
Stream size                    : 58.2 KiB (0%)
Language                       : English
Default                        : No
Forced                         : No

Text #2
ID                             : 5
Format                         : UTF-8
Codec ID                       : S_TEXT/UTF8
Codec ID/Info                  : UTF-8 Plain Text
Duration                       : 2 h 33 min
Bit rate                       : 41 b/s
Count of elements              : 1785
Stream size                    : 46.6 KiB (0%)
Language                       : English
Default                        : No
Forced                         : No

Screen Shoots







YouTube Video:
Category:Movies
Language:English  English
Total Size:1.26 GB
Info Hash:6CA81851F4771A7702A3D820CB89F35CF82D873C
Added By:india4movie Verified Uploader
Date Added:2022-01-11 22:36:16
Torrent Status:Torrent Verified


Ratings:Not Yet Rated (Log in to rate it)


Tracker:
udp://tracker.opentrackr.org:1337/announce

This Torrent also has backup trackers
URLSeedersLeechersCompleted
udp://tracker.opentrackr.org:1337/announce72124416
udp://9.rarbg.me:2790/announce5773781
udp://9.rarbg.to:2800/announce5773781
http://tracker.dler.org:6969/announce4170
udp://tracker.internetwarriors.net:1337/announce5992244
udp://open.stealth.si:80/announce4795206
udp://fasttracker.foreverpirates.co:6969/announce000
udp://tracker.uw0.xyz:6969/announce000
udp://tracker.dler.org:6969/announce4170
udp://opentor.org:2710/announce3873115
udp://open.stealth.si:80/announce4795206
udp://9.rarbg.me:2980/announce5673781
udp://tracker.openbittorrent.com:80/announce547310


File List: 





Comments
No comments still posted