Download House of the Dragon (2024) S02E01 720p 10bit WEBRip [Hindi + English] Dual Audio x265 HEVC ESub ~ TheAvi [ProtonMovies] torrent - GloDLS
Torrent Details For "House of the Dragon (2024) S02E01 720p 10bit WEBRip [Hindi + English] Dual Audio x265..."

House of the Dragon (2024) S02E01 720p 10bit WEBRip [Hindi + English] Dual Audio x265...

To download this torrent, you need a BitTorrent client: Vuze or BTGuard
Download this torrent
Download using Magnet Link

Health:
Seeds: 124
Leechers: 70
Completed: 100 
Last Checked: 17-06-2024 11:01:27

Uploader Reputation points : 2696





Write a Review for the Uploader:   5   Say Thanks with one good review:
Share on Facebook


Details
Name:House of the Dragon (2024) S02E01 720p 10bit WEBRip [Hindi + English] Dual Audio x265...
Description:
"Show your support to ProtonMovies"



********************************

"Show your support to ProtonMovies"

"@Team Shadow"

"AlejandroAXL"

We Keep All Torrents. In case of re-seed, please pm Or Comment On Torrent For Re-Seed  

********************************


Format                                   : Matroska
Format version                           : Version 4
File size                                : 402 MiB
Duration                                 : 58 min 4 s
Overall bit rate                         : 967 kb/s
Movie name                               : House of the Dragon (2024) S02E01 720p 10bit WEBRip x265 HEVC [ Hindi JC DDP 2.0 – English AAC 2.0 ] ESub ~ TheAvi ~ PSA
Encoded date                             : UTC 2024-06-17 03:02:39
Writing application                      : mkvmerge v81.0 ('Milliontown') 64-bit
Writing library                          : libebml v1.4.4 + libmatroska v1.7.1
Comment                                  : Muxed By TheAvi
Attachments                              : TheAvi.jpg

Video
ID                                       : 1
Format                                   : HEVC
Format/Info                              : High Efficiency Video Coding
Format profile                           : Main [email protected]@Main
Codec ID                                 : V_MPEGH/ISO/HEVC
Duration                                 : 58 min 3 s
Bit rate                                 : 669 kb/s
Width                                    : 1 280 pixels
Height                                   : 640 pixels
Display aspect ratio                     : 2.000
Frame rate mode                          : Constant
Frame rate                               : 23.976 (24000/1001) FPS
Color space                              : YUV
Chroma subsampling                       : 4:2:0
Bit depth                                : 10 bits
Bits/(Pixel*Frame)                       : 0.034
Stream size                              : 278 MiB (69%)
Title                                    : TG -: @EpitomeQuality
Default                                  : Yes
Forced                                   : No
Color range                              : Limited
Color primaries                          : BT.709
Transfer characteristics                 : BT.709
Matrix coefficients                      : BT.709

Audio #1
ID                                       : 2
Format                                   : E-AC-3
Format/Info                              : Enhanced AC-3
Commercial name                          : Dolby Digital Plus
Codec ID                                 : A_EAC3
Duration                                 : 58 min 4 s
Bit rate mode                            : Constant
Bit rate                                 : 224 kb/s
Channel(s)                               : 2 channels
Channel layout                           : L R
Sampling rate                            : 48.0 kHz
Frame rate                               : 31.250 FPS (1536 SPF)
Compression mode                         : Lossy
Delay relative to video                  : 2 ms
Stream size                              : 93.1 MiB (23%)
Title                                    : Hindi / DDP 2.0 / TheAvi
Language                                 : Hindi
Service kind                             : Complete Main
Default                                  : Yes
Forced                                   : No

Audio #2
ID                                       : 3
Format                                   : AAC LC SBR
Format/Info                              : Advanced Audio Codec Low Complexity with Spectral Band Replication
Commercial name                          : HE-AAC
Format settings                          : Explicit
Codec ID                                 : A_AAC-2
Duration                                 : 58 min 3 s
Bit rate                                 : 69.0 kb/s
Channel(s)                               : 2 channels
Channel layout                           : L R
Sampling rate                            : 48.0 kHz
Frame rate                               : 23.438 FPS (2048 SPF)
Compression mode                         : Lossy
Delay relative to video                  : 23 ms
Stream size                              : 28.7 MiB (7%)
Title                                    : English / AAC 2.0 / TheAvi
Language                                 : English
Default                                  : Yes
Forced                                   : No

Text #1
ID                                       : 4
Format                                   : UTF-8
Codec ID                                 : S_TEXT/UTF8
Codec ID/Info                            : UTF-8 Plain Text
Duration                                 : 54 min 12 s
Bit rate                                 : 51 b/s
Count of elements                        : 584
Stream size                              : 20.3 KiB (0%)
Language                                 : English
Default                                  : Yes
Forced                                   : No

Text #2
ID                                       : 5
Format                                   : UTF-8
Codec ID                                 : S_TEXT/UTF8
Codec ID/Info                            : UTF-8 Plain Text
Duration                                 : 57 min 46 s
Bit rate                                 : 56 b/s
Count of elements                        : 797
Stream size                              : 24.0 KiB (0%)
Title                                    : SDH
Language                                 : English
Default                                  : No
Forced                                   : No







YouTube Video:
Category:TV
Language:English  English
Total Size:401.52 MB
Info Hash:FAE27918FE54A13858105C81F63D784483AB4C0E
Added By:trueHD Verified Uploader
Date Added:2024-06-17 15:53:06
Torrent Status:Torrent Verified


Ratings:Not Yet Rated (Log in to rate it)


Tracker:
udp://tracker.openbittorrent.com:80/announce

This Torrent also has backup trackers
URLSeedersLeechersCompleted
udp://tracker.openbittorrent.com:80/announce000
udp://tracker.opentrackr.org:1337/announce211225
https://tracker.gbitt.info:443/announce14911
http://tracker.gbitt.info:80/announce14911
udp://tracker.tiny-vps.com:6969/announce868
udp://tracker.theoks.net:6969/announce000
udp://tracker.dump.cl:6969/announce000
udp://tracker.bittor.pw:1337/announce000
https://tracker.bt4g.com:443/announce1257
udp://open.stealth.si:80/announce1178
udp://tracker.torrent.eu.org:451/announce1177
udp://bubu.mapfactor.com:6969/announce1169
https://tracker.yemekyedim.com:443/announce1147
udp://open.demonoid.ch:6969/announce1157


File List: 





Comments
No comments still posted