Download House Of The Dragon S02E01 2160p MAX WEB-DL DV HDR ENG LATINO DDP5 1 Atmos H265 MP4-BEN THE MEN torrent - GloDLS
Torrent Details For "House Of The Dragon S02E01 2160p MAX WEB-DL DV HDR ENG LATINO DDP5 1 Atmos H265 MP4-B..."

House Of The Dragon S02E01 2160p MAX WEB-DL DV HDR ENG LATINO DDP5 1 Atmos H265 MP4-B...

To download this torrent, you need a BitTorrent client: Vuze or BTGuard
Download this torrent
Download using Magnet Link

Health:
Seeds: 1,595
Leechers: 1,892
Completed: 3,100 
Last Checked: 17-06-2024 09:51:19

Uploader Reputation points : 1289





Write a Review for the Uploader:   -2   Say Thanks with one good review:
Share on Facebook
TV Info

House of the Dragon

The story of House Targaryen, 200 years before the events of Game of Thrones.



Details
Name:House Of The Dragon S02E01 2160p MAX WEB-DL DV HDR ENG LATINO DDP5 1 Atmos H265 MP4-B...
Description:
House.Of.The.Dragon.S02E01.2160p.MAX.WEB-DL.DV.HDR.ENG.LATINO.DDP5.1.Atmos.H265.MP4-BEN.THE.MEN

https://www.youtube.com/watch?v=7TsVh7yBLoQ

https://www.imdb.com/title/tt11198330/

An internal succession war within House Targaryen at the height of its power,
172 years before the birth of Daenerys Targaryen.







Format                                   : MPEG-4
Format profile                           : Base Media
Codec ID                                 : isom (isom/dby1/iso2/mp41)
File size                                : 9.05 GiB
Duration                                 : 58 min 3 s
Overall bit rate mode                    : Variable
Overall bit rate                         : 22.3 Mb/s
Frame rate                               : 23.976 FPS
Movie name                               : House.Of.The.Dragon.S02E01.2160p.MAX.WEB-DL.DV[Ben The Men]
Tagged date                              : 2024-06-17 03:54:50 UTC
Writing application                      : Lavf60.3.100
Cover                                    : Yes

Video
ID                                       : 1
Format                                   : HEVC
Format/Info                              : High Efficiency Video Coding
Format profile                           : Main [email protected]@Main
HDR format                               : Dolby Vision, Version 1.0, Profile 8.1, dvhe.08.06, BL+RPU, no metadata compression, HDR10 compatible / SMPTE ST 2086, Version HDR10, HDR10 compatible
Codec ID                                 : hev1
Codec ID/Info                            : High Efficiency Video Coding
Duration                                 : 58 min 3 s
Bit rate                                 : 21.4 Mb/s
Width                                    : 3 840 pixels
Height                                   : 1 920 pixels
Display aspect ratio                     : 2.000
Frame rate mode                          : Constant
Frame rate                               : 23.976 (24000/1001) FPS
Color space                              : YUV
Chroma subsampling                       : 4:2:0 (Type 0)
Bit depth                                : 10 bits
Bits/(Pixel*Frame)                       : 0.121
Stream size                              : 8.68 GiB (96%)
Title                                    : BEN.THE.MEN
Writing library                          : x265 3.5+1-f0c1022b6:[Linux][GCC 10.2.1][64 bit] 10bit
Language                                 : English
Forced                                   : Yes
Tagged date                              : 2024-06-17 03:54:50 UTC
Color range                              : Limited
Color primaries                          : BT.2020
Transfer characteristics                 : PQ
Matrix coefficients                      : BT.2020 non-constant
Mastering display color primaries        : Display P3
Mastering display luminance              : min: 0.0001 cd/m2, max: 1000 cd/m2
Maximum Content Light Level              : 962 cd/m2
Maximum Frame-Average Light Level        : 566 cd/m2
Codec configuration box                  : hvcC+dvvC

Audio #1
ID                                       : 3
Format                                   : E-AC-3 JOC
Format/Info                              : Enhanced AC-3 with Joint Object Coding
Commercial name                          : Dolby Digital Plus with Dolby Atmos
Codec ID                                 : ec-3
Duration                                 : 58 min 3 s
Bit rate mode                            : Constant
Bit rate                                 : 640 kb/s
Channel(s)                               : 6 channels
Channel layout                           : L R C LFE Ls Rs
Sampling rate                            : 48.0 kHz
Frame rate                               : 31.250 FPS (1536 SPF)
Compression mode                         : Lossy
Stream size                              : 266 MiB (3%)
Title                                    : BTM DDP5.1 Atmos
Language                                 : English

Service kind                             : Complete Main
Default                                  : Yes
Forced                                   : Yes
Alternate group                          : 2
Tagged date                              : 2024-06-17 03:54:50 UTC
Complexity index                         : Not present / 16
Number of dynamic objects                : 15
Bed channel count                        : 1 channel
Bed channel configuration                : LFE
Dialog Normalization                     : -29 dB
compr                                    : -0.28 dB
dmixmod                                  : Lo/Ro
ltrtcmixlev                              : -3.0 dB
ltrtsurmixlev                            : -3.0 dB
lorocmixlev                              : -3.0 dB
lorosurmixlev                            : -3.0 dB
dialnorm_Average                         : -29 dB
dialnorm_Minimum                         : -29 dB
dialnorm_Maximum                         : -29 dB

Audio #2
ID                                       : 4
Format                                   : E-AC-3
Format/Info                              : Enhanced AC-3
Commercial name                          : Dolby Digital Plus
Codec ID                                 : ec-3
Duration                                 : 58 min 3 s
Bit rate mode                            : Constant
Bit rate                                 : 256 kb/s
Channel(s)                               : 6 channels
Channel layout                           : L R C LFE Ls Rs
Sampling rate                            : 48.0 kHz
Frame rate                               : 31.250 FPS (1536 SPF)
Compression mode                         : Lossy
Stream size                              : 106 MiB (1%)
Title                                    : BTM DDP5.1
Language                                 : Spanish

Service kind                             : Complete Main
Default                                  : Yes
Forced                                   : Yes
Alternate group                          : 3
Tagged date                              : 2024-06-17 03:54:50 UTC
Dialog Normalization                     : -23 dB
compr                                    : -0.28 dB
dmixmod                                  : Lo/Ro
ltrtcmixlev                              : -3.0 dB
ltrtsurmixlev                            : -3.0 dB
lorocmixlev                              : -3.0 dB
lorosurmixlev                            : -3.0 dB
dialnorm_Average                         : -23 dB
dialnorm_Minimum                         : -23 dB
dialnorm_Maximum                         : -23 dB
YouTube Video:   
Category:TV
Language:Dubs/Dual Audio
Total Size:9.05 GB
Info Hash:87C56CCB4AD865A657F9B897E4CCF56FE214DC02
Added By:Freddy1714 Verified Uploader
Date Added:2024-06-17 12:08:00
Torrent Status:Torrent Verified


Ratings:Not Yet Rated (Log in to rate it)


Tracker:
udp://tracker.opentrackr.org:1337/announce

This Torrent also has backup trackers
URLSeedersLeechersCompleted
udp://tracker.opentrackr.org:1337/announce282318701
udp://open.stealth.si:80/announce226258586
udp://tracker.torrent.eu.org:451/announce263250616
udp://explodie.org:6969/announce2092270
udp://open.demonii.com:1337/announce1111340
udp://tracker.tiny-vps.com:6969/announce89180601
http://bt.okmp3.ru:2710/announce7770185
https://tracker.tamersunion.org:443/announce781190
http://tracker.vraphim.com:6969/announce000
http://tracker2.dler.org:80/announce5710766
udp://exodus.desync.com:6969/announce140155317
udp://tracker.bittor.pw:1337/announce33380
http://secure.pow7.com/announce151814
http://t1.pow7.com/announce151814


File List: 





Comments
No comments still posted