Download Housos.S04E05.720p.WEB.x264-SunnyZ torrent - GloDLS
Torrent Details For "Housos.S04E05.720p.WEB.x264-SunnyZ"

Housos.S04E05.720p.WEB.x264-SunnyZ

To download this torrent, you need a BitTorrent client: Vuze or BTGuard
Download this torrent
Download using Magnet Link

Health:
Seeds: 14
Leechers: 0
Completed: 40 
Last Checked: 23-06-2022 13:20:30

Uploader Reputation points : 654





Write a Review for the Uploader:   5   Say Thanks with one good review:
Share on Facebook
TV Info

Housos

Housos tells the not-so-epic stories of Shazza, Dazza, Franky and Kylie - four best mates from down on the block. Sure, they drink away their problems, they might even have frequent domestics but down on the block it's all for one and one for all. Follow the adventures of the residents of the Sunnyvale Housing Commission in every-town Australia. They battle cops and they scam Centrelink, they even have the occasional threesome and swingers party, but once your down with the crew in the hood then it's "Sunnyvale for life".



Details
Name:Housos.S04E05.720p.WEB.x264-SunnyZ
Description:
General
Complete name                  : Housos.S04E05.720p.WEB.x264-SunnyZ.mp4
Format                         : MPEG-4
Format profile                 : Base Media
Codec ID                       : isom
File size                      : 767 MiB
Duration                       : 29mn 1s
Overall bit rate               : 3 692 Kbps
Movie name                     : Watch Housos Online: Free Streaming & Catch Up TV in Australia | 7plus — Mozilla Firefox
Performer                      : Microsoft Game DVR
Writing application            : Lavf58.5.100

Video
ID                             : 1
Format                         : AVC
Format/Info                    : Advanced Video Codec
Format profile                 : [email protected]
Format settings, CABAC         : Yes
Format settings, ReFrames      : 4 frames
Codec ID                       : avc1
Codec ID/Info                  : Advanced Video Coding
Duration                       : 29mn 1s
Bit rate                       : 3 500 Kbps
Width                          : 1 280 pixels
Height                         : 720 pixels
Display aspect ratio           : 16:9
Frame rate mode                : Constant
Frame rate                     : 30.000 fps
Color space                    : YUV
Chroma subsampling             : 4:2:0
Bit depth                      : 8 bits
Scan type                      : Progressive
Bits/(Pixel*Frame)             : 0.127
Stream size                    : 738 MiB (96%)
Writing library                : x264 core 149 r2802M 8c29742
Encoding settings              : cabac=1 / ref=3 / deblock=1:0:0 / analyse=0x3:0x113 / me=hex / subme=7 / psy=1 / psy_rd=1.00:0.00 / mixed_ref=1 / me_range=16 / chroma_me=1 / trellis=1 / 8x8dct=1 / cqm=0 / deadzone=21,11 / fast_pskip=1 / chroma_qp_offset=-2 / threads=22 / lookahead_threads=3 / sliced_threads=0 / nr=0 / decimate=1 / interlaced=0 / bluray_compat=0 / constrained_intra=0 / bframes=3 / b_pyramid=2 / b_adapt=1 / b_bias=0 / direct=1 / weightb=1 / open_gop=0 / weightp=2 / keyint=250 / keyint_min=25 / scenecut=40 / intra_refresh=0 / rc_lookahead=40 / rc=abr / mbtree=1 / bitrate=3500 / ratetol=1.0 / qcomp=0.60 / qpmin=0 / qpmax=69 / qpstep=4 / ip_ratio=1.40 / aq=1:1.00

Audio
ID                             : 2
Format                         : AAC
Format/Info                    : Advanced Audio Codec
Format profile                 : LC
Codec ID                       : 40
Duration                       : 29mn 1s
Bit rate mode                  : Constant
Bit rate                       : 132 Kbps
Channel(s)                     : 2 channels
Channel positions              : Front: L R
Sampling rate                  : 48.0 KHz
Compression mode               : Lossy
Stream size                    : 27.2 MiB (4%)



YouTube Video:
Category:TV
Language:English  English
Total Size:766.62 MB
Info Hash:61A4CDB00BCC0D569A09F9F47F790E51684F88FA
Added By:SunnyZ Verified Uploader
Date Added:2022-06-22 22:40:37
Torrent Status:Torrent Verified


Ratings:Not Yet Rated (Log in to rate it)


Tracker:
udp://tracker.cyberia.is:6969/announce

This Torrent also has backup trackers
URLSeedersLeechersCompleted
udp://tracker.cyberia.is:6969/announce000
udp://tracker.coppersurfer.tk:80000
udp://glotorrents.pw:6969/announce200
udp://tracker.opentrackr.org:1337/announce6013
udp://exodus.desync.com:69696027


File List: 





Comments
No comments still posted