Download Human (2022) 1080p Hindi Season 1 (EP 1 TO 10) WEB-HDRip x264 AAC DD 5 1 ESub By Full4Movies torrent - GloDLS
HTML tutorial
Torrent Details For "Human (2022) 1080p Hindi Season 1 (EP 1 TO 10) WEB-HDRip x264 AAC DD 5 1 ESub By Full..."

Human (2022) 1080p Hindi Season 1 (EP 1 TO 10) WEB-HDRip x264 AAC DD 5 1 ESub By Full...

To download this torrent, you need a BitTorrent client: Vuze or BTGuard
Download this torrent
Download using Magnet Link

Health:
Seeds: 138
Leechers: 240
Completed: 922 
Last Checked: 16-01-2022 11:58:58

Uploader Reputation points : 7282





Write a Review for the Uploader:   10   Say Thanks with one good review:
Share on Facebook


Details
Name:Human (2022) 1080p Hindi Season 1 (EP 1 TO 10) WEB-HDRip x264 AAC DD 5 1 ESub By Full...
Description:


Visit Us = https://www.full4movies.sbs/



General
Complete name                  : Human (2022) 1080p Hindi Season 1 (EP 1 TO 10) WEB-HDRip x264 AAC DD 5.1 ESub By Full4Movies
Format                         : Matroska
Format version                 : Version 4
File size                      : 938 MiB
Duration                       : 48 min 40 s
Overall bit rate               : 2 694 kb/s
Encoded date                   : UTC 2022-01-14 09:09:30 / UTC 2022-01-14T06:55:25Z
Writing application            : mkvmerge v8.3.0 ('Over the Horizon') 64bit
Writing library                : libebml v1.3.1 + libmatroska v1.4.2 / Lavf57.7.2
Attachments                    : 383845052472320.jpg

Video
ID                             : 1
Format                         : AVC
Format/Info                    : Advanced Video Codec
Format profile                 : [email protected]
Format settings                : CABAC / 4 Ref Frames
Format settings, CABAC         : Yes
Format settings, Reference fra : 4 frames
Codec ID                       : V_MPEG4/ISO/AVC
Duration                       : 48 min 40 s
Bit rate                       : 2 500 kb/s
Width                          : 1 920 pixels
Height                         : 960 pixels
Display aspect ratio           : 2.000
Frame rate mode                : Constant
Frame rate                     : 25.000 FPS
Color space                    : YUV
Chroma subsampling             : 4:2:0
Bit depth                      : 8 bits
Scan type                      : Progressive
Bits/(Pixel*Frame)             : 0.054
Stream size                    : 870 MiB (93%)
Writing library                : x264 core 148 r2708 86b7198
Default                        : Yes
Forced                         : No
Color range                    : Limited
Color primaries                : BT.709
Transfer characteristics       : BT.709
Matrix coefficients            : BT.709

Audio
ID                             : 2
Format                         : AAC LC
Format/Info                    : Advanced Audio Codec Low Complexity
Codec ID                       : A_AAC-2
Duration                       : 48 min 40 s
Bit rate                       : 192 kb/s
Channel(s)                     : 6 channels
Channel layout                 : C L R Ls Rs LFE
Sampling rate                  : 48.0 kHz
Frame rate                     : 46.875 FPS (1024 SPF)
Compression mode               : Lossy
Delay relative to video        : -21 ms
Stream size                    : 66.7 MiB (7%)
Language                       : Hindi
Default                        : Yes
Forced                         : No

Text
ID                             : 3
Format                         : ASS
Codec ID                       : S_TEXT/ASS
Codec ID/Info                  : Advanced Sub Station Alpha
Duration                       : 46 min 23 s
Bit rate                       : 114 b/s
Count of elements              : 734
Compression mode               : Lossless
Stream size                    : 38.9 KiB (0%)
Language                       : English
Default                        : No
Forced                         : No

Screen Shoots







YouTube Video:
Category:TV
Language:Hindi  Hindi
Total Size:8.37 GB
Info Hash:4AC7496352B3FBF02D7D7A51118FF04ECFADE74F
Added By:india4movie Verified Uploader
Date Added:2022-01-15 00:45:59
Torrent Status:Torrent Verified


Ratings:Not Yet Rated (Log in to rate it)


Tracker:
udp://tracker.opentrackr.org:1337/announce

This Torrent also has backup trackers
URLSeedersLeechersCompleted
udp://tracker.opentrackr.org:1337/announce3455257
udp://9.rarbg.me:2790/announce85103
udp://9.rarbg.to:2800/announce85103
http://tracker.dler.org:6969/announce130
udp://tracker.internetwarriors.net:1337/announce3140152
udp://open.stealth.si:80/announce153379
udp://fasttracker.foreverpirates.co:6969/announce000
udp://tracker.uw0.xyz:6969/announce000
udp://tracker.dler.org:6969/announce021
udp://opentor.org:2710/announce62135
udp://open.stealth.si:80/announce153379
udp://9.rarbg.me:2980/announce85103
udp://tracker.openbittorrent.com:80/announce123810


File List: 





Comments
No comments still posted