Download Inherent Vice 2014 1080p BluRay REMUX ENG LATINO RUS CZE HUN POL THAI TUR DTS-HD Master H264-BEN THE MEN torrent - GloDLS
Torrent Details For "Inherent Vice 2014 1080p BluRay REMUX ENG LATINO RUS CZE HUN POL THAI TUR DTS-HD Mast..."

Inherent Vice 2014 1080p BluRay REMUX ENG LATINO RUS CZE HUN POL THAI TUR DTS-HD Mast...

To download this torrent, you need a BitTorrent client: Vuze or BTGuard
Download this torrent
Download using Magnet Link

Health:
Seeds: 314
Leechers: 429
Completed: 649 
Last Checked: 11-07-2024 06:18:34

Uploader Reputation points : 1364





Write a Review for the Uploader:   3   Say Thanks with one good review:
Share on Facebook


Details
Name:Inherent Vice 2014 1080p BluRay REMUX ENG LATINO RUS CZE HUN POL THAI TUR DTS-HD Mast...
Description:
Inherent.Vice.2014.1080p.BluRay.REMUX.ENG.LATINO.RUS.CZE.HUN.POL.THAI.TUR.DTS-HD.Master.H264-BEN.THE.MEN

https://www.youtube.com/watch?v=wZfs22E7JmI

https://www.imdb.com/title/tt1791528/

In 1970, drug-fueled Los Angeles private investigator Larry "Doc" Sportello investigates the disappearance of a former girlfriend.

SUB LIST

English, Czech, Korean, Greek, Hungarian, Polish, Portuguese, Romanian, Russian, Thai, Turkish, Hungarian, Chinese







Format                                   : Matroska
Format version                           : Version 4
File size                                : 35.4 GiB
Duration                                 : 2 h 28 min
Overall bit rate mode                    : Variable
Overall bit rate                         : 34.1 Mb/s
Frame rate                               : 23.976 FPS
Movie name                               : Inherent.Vice.2014.1080p.BluRay.REMUX[Ben The Men]
Encoded date                             : 2024-07-10 19:22:51 UTC
Writing application                      : mkvmerge v85.0 ('Shame For You') 64-bit
Writing library                          : libebml v1.4.5 + libmatroska v1.7.1
Attachments                              : BEN.THE.MEN.TORRENTS.jpg

Video
ID                                       : 1
Format                                   : AVC
Format/Info                              : Advanced Video Codec
Format profile                           : [email protected]
Format settings                          : CABAC / 2 Ref Frames
Format settings, CABAC                   : Yes
Format settings, Reference frames        : 2 frames
Format settings, Slice count             : 4 slices per frame
Codec ID                                 : V_MPEG4/ISO/AVC
Duration                                 : 2 h 28 min
Bit rate mode                            : Variable
Bit rate                                 : 24.9 Mb/s
Width                                    : 1 920 pixels
Height                                   : 1 080 pixels
Display aspect ratio                     : 16:9
Frame rate mode                          : Constant
Frame rate                               : 23.976 (24000/1001) FPS
Color space                              : YUV
Chroma subsampling                       : 4:2:0
Bit depth                                : 8 bits
Scan type                                : Progressive
Bits/(Pixel*Frame)                       : 0.502
Time code of first frame                 : 00:59:58:00
Stream size                              : 25.9 GiB (73%)
Title                                    : BEN.THE.MEN
Language                                 : English
Default                                  : Yes
Forced                                   : No

Audio #1
ID                                       : 2
Format                                   : DTS XLL
Format/Info                              : Digital Theater Systems
Commercial name                          : DTS-HD Master Audio
Codec ID                                 : A_DTS
Duration                                 : 2 h 28 min
Bit rate mode                            : Variable
Bit rate                                 : 3 296 kb/s
Channel(s)                               : 6 channels
Channel layout                           : C L R Ls Rs LFE
Sampling rate                            : 48.0 kHz
Frame rate                               : 93.750 FPS (512 SPF)
Bit depth                                : 24 bits
Compression mode                         : Lossless
Stream size                              : 3.42 GiB (10%)
Title                                    : BTM DTS-HD Master
Language                                 : English

Default                                  : Yes
Forced                                   : No

Audio #2
ID                                       : 3
Format                                   : E-AC-3
Format/Info                              : Enhanced AC-3
Commercial name                          : Dolby Digital Plus
Codec ID                                 : A_EAC3
Duration                                 : 2 h 28 min
Bit rate mode                            : Constant
Bit rate                                 : 960 kb/s
Channel(s)                               : 2 channels
Channel layout                           : L R
Sampling rate                            : 48.0 kHz
Frame rate                               : 31.250 FPS (1536 SPF)
Compression mode                         : Lossy
Stream size                              : 1 021 MiB (3%)
Title                                    : BTM DDP 2CH
Language                                 : English

Service kind                             : Complete Main
Default                                  : No
Forced                                   : No
Dialog Normalization                     : -31 dB
dialnorm_Average                         : -31 dB
dialnorm_Minimum                         : -31 dB
dialnorm_Maximum                         : -31 dB

Audio #3
ID                                       : 4
Format                                   : AC-3
Format/Info                              : Audio Coding 3
Commercial name                          : Dolby Digital
Codec ID                                 : A_AC3
Duration                                 : 2 h 28 min
Bit rate mode                            : Constant
Bit rate                                 : 640 kb/s
Channel(s)                               : 6 channels
Channel layout                           : L R C LFE Ls Rs
Sampling rate                            : 48.0 kHz
Frame rate                               : 31.250 FPS (1536 SPF)
Compression mode                         : Lossy
Stream size                              : 681 MiB (2%)
Title                                    : BTM DD 5.1
Language                                 : English

Service kind                             : Complete Main
Default                                  : No
Forced                                   : No
Dialog Normalization                     : -27 dB
compr                                    : -0.28 dB
cmixlev                                  : -3.0 dB
surmixlev                                : -3 dB
mixlevel                                 : 283 dB
roomtyp                                  : 3
ltrtcmixlev                              : -3.0 dB
ltrtsurmixlev                            : -3.0 dB
lorocmixlev                              : -3.0 dB
lorosurmixlev                            : -4.5 dB
dialnorm_Average                         : -27 dB
dialnorm_Minimum                         : -27 dB
dialnorm_Maximum                         : -27 dB

Audio #4
ID                                       : 5
Format                                   : AC-3
Format/Info                              : Audio Coding 3
Commercial name                          : Dolby Digital
Codec ID                                 : A_AC3
Duration                                 : 2 h 28 min
Bit rate mode                            : Constant
Bit rate                                 : 640 kb/s
Channel(s)                               : 6 channels
Channel layout                           : L R C LFE Ls Rs
Sampling rate                            : 48.0 kHz
Frame rate                               : 31.250 FPS (1536 SPF)
Compression mode                         : Lossy
Stream size                              : 681 MiB (2%)
Title                                    : BTM DD 5.1
Language                                 : Spanish

Service kind                             : Complete Main
Default                                  : No
Forced                                   : No
Dialog Normalization                     : -31 dB
cmixlev                                  : -4.5 dB
surmixlev                                : -6 dB
dialnorm_Average                         : -31 dB
dialnorm_Minimum                         : -31 dB
dialnorm_Maximum                         : -31 dB

Audio #5
ID                                       : 6
Format                                   : AC-3
Format/Info                              : Audio Coding 3
Commercial name                          : Dolby Digital
Codec ID                                 : A_AC3
Duration                                 : 2 h 28 min
Bit rate mode                            : Constant
Bit rate                                 : 640 kb/s
Channel(s)                               : 6 channels
Channel layout                           : L R C LFE Ls Rs
Sampling rate                            : 48.0 kHz
Frame rate                               : 31.250 FPS (1536 SPF)
Compression mode                         : Lossy
Stream size                              : 681 MiB (2%)
Title                                    : BTM DD 5.1
Language                                 : Czech

Service kind                             : Complete Main
Default                                  : No
Forced                                   : No
Dialog Normalization                     : -27 dB
compr                                    : -0.28 dB
cmixlev                                  : -3.0 dB
surmixlev                                : -3 dB
mixlevel                                 : 283 dB
roomtyp                                  : 3
ltrtcmixlev                              : -3.0 dB
ltrtsurmixlev                            : -3.0 dB
lorocmixlev                              : -3.0 dB
lorosurmixlev                            : -4.5 dB
dialnorm_Average                         : -27 dB
dialnorm_Minimum                         : -27 dB
dialnorm_Maximum                         : -27 dB

Audio #6
ID                                       : 7
Format                                   : AC-3
Format/Info                              : Audio Coding 3
Commercial name                          : Dolby Digital
Codec ID                                 : A_AC3
Duration                                 : 2 h 28 min
Bit rate mode                            : Constant
Bit rate                                 : 640 kb/s
Channel(s)                               : 6 channels
Channel layout                           : L R C LFE Ls Rs
Sampling rate                            : 48.0 kHz
Frame rate                               : 31.250 FPS (1536 SPF)
Compression mode                         : Lossy
Stream size                              : 681 MiB (2%)
Title                                    : BTM DD 5.1
Language                                 : Hungarian

Service kind                             : Complete Main
Default                                  : No
Forced                                   : No
Dialog Normalization                     : -27 dB
compr                                    : -0.28 dB
cmixlev                                  : -3.0 dB
surmixlev                                : -3 dB
mixlevel                                 : 283 dB
roomtyp                                  : 3
ltrtcmixlev                              : -3.0 dB
ltrtsurmixlev                            : -3.0 dB
lorocmixlev                              : -3.0 dB
lorosurmixlev                            : -4.5 dB
dialnorm_Average                         : -27 dB
dialnorm_Minimum                         : -27 dB
dialnorm_Maximum                         : -27 dB

Audio #7
ID                                       : 8
Format                                   : AC-3
Format/Info                              : Audio Coding 3
Commercial name                          : Dolby Digital
Codec ID                                 : A_AC3
Duration                                 : 2 h 28 min
Bit rate mode                            : Constant
Bit rate                                 : 640 kb/s
Channel(s)                               : 6 channels
Channel layout                           : L R C LFE Ls Rs
Sampling rate                            : 48.0 kHz
Frame rate                               : 31.250 FPS (1536 SPF)
Compression mode                         : Lossy
Stream size                              : 681 MiB (2%)
Title                                    : BTM DD 5.1
Language                                 : Polish

Service kind                             : Complete Main
Default                                  : No
Forced                                   : No
Dialog Normalization                     : -27 dB
compr                                    : -0.28 dB
cmixlev                                  : -3.0 dB
surmixlev                                : -3 dB
mixlevel                                 : 283 dB
roomtyp                                  : 3
ltrtcmixlev                              : -3.0 dB
ltrtsurmixlev                            : -3.0 dB
lorocmixlev                              : -3.0 dB
lorosurmixlev                            : -4.5 dB
dialnorm_Average                         : -27 dB
dialnorm_Minimum                         : -27 dB
dialnorm_Maximum                         : -27 dB

Audio #8
ID                                       : 9
Format                                   : AC-3
Format/Info                              : Audio Coding 3
Commercial name                          : Dolby Digital
Codec ID                                 : A_AC3
Duration                                 : 2 h 28 min
Bit rate mode                            : Constant
Bit rate                                 : 640 kb/s
Channel(s)                               : 6 channels
Channel layout                           : L R C LFE Ls Rs
Sampling rate                            : 48.0 kHz
Frame rate                               : 31.250 FPS (1536 SPF)
Compression mode                         : Lossy
Stream size                              : 681 MiB (2%)
Title                                    : BTM DD 5.1
Language                                 : Russian

Service kind                             : Complete Main
Default                                  : No
Forced                                   : No
Dialog Normalization                     : -27 dB
compr                                    : -0.28 dB
cmixlev                                  : -3.0 dB
surmixlev                                : -3 dB
mixlevel                                 : 283 dB
roomtyp                                  : 3
ltrtcmixlev                              : -3.0 dB
ltrtsurmixlev                            : -3.0 dB
lorocmixlev                              : -3.0 dB
lorosurmixlev                            : -4.5 dB
dialnorm_Average                         : -27 dB
dialnorm_Minimum                         : -27 dB
dialnorm_Maximum                         : -27 dB

Audio #9
ID                                       : 10
Format                                   : AC-3
Format/Info                              : Audio Coding 3
Commercial name                          : Dolby Digital
Codec ID                                 : A_AC3
Duration                                 : 2 h 28 min
Bit rate mode                            : Constant
Bit rate                                 : 640 kb/s
Channel(s)                               : 6 channels
Channel layout                           : L R C LFE Ls Rs
Sampling rate                            : 48.0 kHz
Frame rate                               : 31.250 FPS (1536 SPF)
Compression mode                         : Lossy
Stream size                              : 681 MiB (2%)
Title                                    : BTM DD 5.1
Language                                 : Thai

Service kind                             : Complete Main
Default                                  : No
Forced                                   : No
Dialog Normalization                     : -27 dB
compr                                    : -0.28 dB
cmixlev                                  : -3.0 dB
surmixlev                                : -3 dB
mixlevel                                 : 283 dB
roomtyp                                  : 3
ltrtcmixlev                              : -3.0 dB
ltrtsurmixlev                            : -3.0 dB
lorocmixlev                              : -3.0 dB
lorosurmixlev                            : -4.5 dB
dialnorm_Average                         : -27 dB
dialnorm_Minimum                         : -27 dB
dialnorm_Maximum                         : -27 dB

Audio #10
ID                                       : 11
Format                                   : AC-3
Format/Info                              : Audio Coding 3
Commercial name                          : Dolby Digital
Format settings                          : Dolby Surround
Codec ID                                 : A_AC3
Duration                                 : 2 h 28 min
Bit rate mode                            : Constant
Bit rate                                 : 192 kb/s
Channel(s)                               : 2 channels
Channel layout                           : L R
Sampling rate                            : 48.0 kHz
Frame rate                               : 31.250 FPS (1536 SPF)
Compression mode                         : Lossy
Stream size                              : 204 MiB (0%)
Title                                    : BTM DD 2CH
Language                                 : Turkish

Service kind                             : Complete Main
Default                                  : No
Forced                                   : No
Dialog Normalization                     : -27 dB
compr                                    : -0.28 dB
dsurmod                                  : Dolby Surround encoded
mixlevel                                 : 283 dB
roomtyp                                  : 3
ltrtcmixlev                              : -3.0 dB
ltrtsurmixlev                            : -3.0 dB
lorocmixlev                              : -3.0 dB
lorosurmixlev                            : -3.0 dB
dialnorm_Average                         : -27 dB
dialnorm_Minimum                         : -27 dB
dialnorm_Maximum                         : -27 dB
YouTube Video:   
Category:Movies
Language:Dubs/Dual Audio
Total Size:35.41 GB
Info Hash:DD0F65F7723B78C283C29738CB90338A012DD4AD
Added By:Freddy1714 Verified Uploader
Date Added:2024-07-11 03:47:13
Torrent Status:Torrent Verified


Ratings:Not Yet Rated (Log in to rate it)


Tracker:
udp://tracker.opentrackr.org:1337/announce

This Torrent also has backup trackers
URLSeedersLeechersCompleted
udp://tracker.opentrackr.org:1337/announce395393
udp://open.stealth.si:80/announce324374
udp://tracker.torrent.eu.org:451/announce394989
udp://explodie.org:6969/announce36340
udp://open.demonii.com:1337/announce75813
udp://tracker.tiny-vps.com:6969/announce21486
http://bt.okmp3.ru:2710/announce222149
https://tracker.tamersunion.org:443/announce22290
http://tracker.vraphim.com:6969/announce232550
http://tracker2.dler.org:80/announce142332
udp://exodus.desync.com:6969/announce303363
udp://tracker.bittor.pw:1337/announce000
udp://open.demonoid.ch:6969/announce292757
http://tracker.files.fm:6969/announce192043


File List: 





Comments
No comments still posted