Download Jinne Jamme Saare Nikamme 2021 x264 720p WebHD Esub AAC Punjabi THE GOPI SAHI torrent - GloDLS
HTML tutorial
Torrent Details For "Jinne Jamme Saare Nikamme 2021 x264 720p WebHD Esub AAC Punjabi THE GOPI SAHI"

Jinne Jamme Saare Nikamme 2021 x264 720p WebHD Esub AAC Punjabi THE GOPI SAHI

To download this torrent, you need a BitTorrent client: Vuze or BTGuard
Download this torrent
Download using Magnet Link

Health:
Seeds: 0
Leechers: 0
Completed:
Last Checked: 14-10-2021 07:35:32

Uploader Reputation points : 3672





Write a Review for the Uploader:   10   Say Thanks with one good review:
Share on Facebook


Details
Name:Jinne Jamme Saare Nikamme 2021 x264 720p WebHD Esub AAC Punjabi THE GOPI SAHI
Description:
Join Us On TeleGram

https://t.me/gopisahit



Jinne Jamme Saare Nikamme 2021 x264 720p WebHD Esub AAC Punjabi THE GOPI SAHI

Format                         : Matroska
Format version                 : Version 4
File size                      : 944 MiB
Duration                       : 2 h 12 min
Overall bit rate               : 998 kb/s
Movie name                     : Jinne Jamme Saare Nikamme 2021 GOPI SAHI
Encoded date                   : UTC 2021-10-14 05:02:42

Video
ID                             : 1
Format                         : AVC
Format/Info                    : Advanced Video Codec
Format profile                 : [email protected]
Format settings                : CABAC / 12 Ref Frames
Format settings, CABAC         : Yes
Format settings, Reference fra : 12 frames
Codec ID                       : V_MPEG4/ISO/AVC
Duration                       : 2 h 12 min
Bit rate                       : 899 kb/s
Width                          : 1 280 pixels
Height                         : 534 pixels
Display aspect ratio           : 2.40:1
Frame rate mode                : Constant
Frame rate                     : 25.000 FPS
Color space                    : YUV
Chroma subsampling             : 4:2:0
Bit depth                      : 8 bits
Scan type                      : Progressive
Bits/(Pixel*Frame)             : 0.053
Stream size                    : 851 MiB (90%)
Title                          : GOPI SAHI
Writing library                : x264 core 163 r3059 b684ebe0

Audio
ID                             : 2
Format                         : AAC LC
Format/Info                    : Advanced Audio Codec Low Complexity
Codec ID                       : A_AAC-2
Duration                       : 2 h 12 min
Bit rate                       : 96.0 kb/s
Channel(s)                     : 2 channels
Channel layout                 : L R
Sampling rate                  : 48.0 kHz
Frame rate                     : 46.875 FPS (1024 SPF)
Compression mode               : Lossy
Delay relative to video        : -21 ms
Stream size                    : 91.4 MiB (10%)
Title                          : GOPI SAHI
Language                       : Panjabi
Default                        : Yes
Forced                         : No

Text
Language                       : English





YouTube Video:
Category:Movies
Language:Hindi  Hindi
Total Size:944.42 MB
Info Hash:0B5146A1AAF9998A07C642E3839357C834CE61F7
Added By:GOPISAHI Verified UploaderMovie Pirate
Date Added:2021-10-14 14:35:29
Torrent Status:Torrent Verified


Ratings:Not Yet Rated (Log in to rate it)


Tracker:
udp://p4p.arenabg.com:1337/announce

This Torrent also has backup trackers
URLSeedersLeechersCompleted
udp://p4p.arenabg.com:1337/announce000
udp://exodus.desync.com:6969/announce000
udp://tracker.sbsub.com:2710/announce000
udp://tracker.opentrackr.org:1337/announce000
udp://open.stealth.si:80/announce000
udp://retracker.lanta-net.ru:2710/announce000
http://bt1.archive.org:6969/announce000
http://bt2.archive.org:6969/announce000
http://tracker.files.fm:6969/announce000
udp://tracker.zerobytes.xyz:1337/announce000
https://tracker.nitrix.me:443/announce000
udp://cutiegirl.ru:6969/announce000
udp://vibe.community:6969/announce000
udp://wassermann.online:6969/announce000
udp://mts.tvbit.co:6969/announce000


File List: 





Comments
No comments still posted