Download Judge.Judy.S25E67.540p.WEB.x264-SunnyZ torrent - GloDLS
HTML tutorial
Torrent Details For "Judge.Judy.S25E67.540p.WEB.x264-SunnyZ"

Judge.Judy.S25E67.540p.WEB.x264-SunnyZ

To download this torrent, you need a BitTorrent client: Vuze or BTGuard
Download this torrent
Download using Magnet Link

Health:
Seeds: 26
Leechers: 11
Completed: 69 
Last Checked: 09-06-2021 09:14:52

Uploader Reputation points : 440





Write a Review for the Uploader:   0   Say Thanks with one good review:
Share on Facebook
TV Info

Judge Judy

This courtroom series stars former family court judge Judith Sheindlin. Each episode finds Judge Judy presiding over real small-claims cases inside a televised courtroom. Judge Judy brings her trademark wit and wisdom to the widely successful half-hour series where justice is dispensed at lightning speed.



Details
Name:Judge.Judy.S25E67.540p.WEB.x264-SunnyZ
Description:
General
Complete name                  : Judge.Judy.S25E67.540p.WEB.x264-SunnyZ.mp4
Format                         : MPEG-4
Format profile                 : Base Media
Codec ID                       : isom
File size                      : 229 MiB
Duration                       : 19mn 51s
Overall bit rate mode          : Variable
Overall bit rate               : 1 613 Kbps
Writing application            : Lavf58.5.100

Video
ID                             : 1
Format                         : AVC
Format/Info                    : Advanced Video Codec
Format profile                 : [email protected]
Format settings, CABAC         : Yes
Format settings, ReFrames      : 5 frames
Codec ID                       : avc1
Codec ID/Info                  : Advanced Video Coding
Duration                       : 19mn 51s
Bit rate                       : 1 480 Kbps
Width                          : 960 pixels
Height                         : 540 pixels
Display aspect ratio           : 16:9
Frame rate mode                : Constant
Frame rate                     : 25.000 fps
Color space                    : YUV
Chroma subsampling             : 4:2:0
Bit depth                      : 8 bits
Scan type                      : Progressive
Bits/(Pixel*Frame)             : 0.114
Stream size                    : 210 MiB (92%)

Audio
ID                             : 2
Format                         : AAC
Format/Info                    : Advanced Audio Codec
Format profile                 : LC
Codec ID                       : 40
Duration                       : 19mn 51s
Bit rate mode                  : Variable
Bit rate                       : 127 Kbps
Channel(s)                     : 2 channels
Channel positions              : Front: L R
Sampling rate                  : 44.1 KHz
Compression mode               : Lossy
Stream size                    : 17.8 MiB (8%)


YouTube Video:
Category:TV
Language:English  English
Total Size:229.02 MB
Info Hash:F7353405966D1F2BB338419DC3059769C1599A5B
Added By:SunnyZ Verified Uploader
Date Added:2021-06-09 13:48:22
Torrent Status:Torrent Verified


Ratings:Not Yet Rated (Log in to rate it)


Tracker:
udp://tracker.cyberia.is:6969/announce

This Torrent also has backup trackers
URLSeedersLeechersCompleted
udp://tracker.cyberia.is:6969/announce000
udp://tracker.coppersurfer.tk:80000
udp://glotorrents.pw:6969/announce000
udp://tracker.opentrackr.org:1337/announce15743
udp://exodus.desync.com:696911426


File List: 





Comments
No comments still posted