Download Judge.Judy.S25E68.540p.WEB.x264-SunnyZ torrent - GloDLS
Login
Username:
Password:
Remember Me:
[Signup]
[Recover Account]
Friends
Angie Torrents
Friendly Site

Pirateiro
Friendly site

Free Courses Online
Friendly site

ETTV
Friendly site

ProStyleX
Friendly site

KaranPC
Friendly site

P2PDL.com
Friendly site

OneHack
Friendly site

IGGGames
Friendly site

Torrent Details For "Judge.Judy.S25E68.540p.WEB.x264-SunnyZ"

Judge.Judy.S25E68.540p.WEB.x264-SunnyZ

To download this torrent, you need a BitTorrent client: Vuze or BTGuard
Download this torrent
Download using Magnet Link

Health:
Seeds: 34
Leechers: 15
Completed: 57 
Last Checked: 10-06-2021 08:12:23

Uploader Reputation points : 374
External: Torrent






Write a Review for the Uploader:   0   Say Thanks with one good review:
Share on Facebook
TV Info

Judge Judy

This courtroom series stars former family court judge Judith Sheindlin. Each episode finds Judge Judy presiding over real small-claims cases inside a televised courtroom. Judge Judy brings her trademark wit and wisdom to the widely successful half-hour series where justice is dispensed at lightning speed.



Details
Name:Judge.Judy.S25E68.540p.WEB.x264-SunnyZ
Description:
General
Complete name                  : Judge.Judy.S25E68.540p.WEB.x264-SunnyZ.mp4
Format                         : MPEG-4
Format profile                 : Base Media
Codec ID                       : isom
File size                      : 230 MiB
Duration                       : 19mn 53s
Overall bit rate               : 1 615 Kbps
Writing application            : Lavf58.5.100

Video
ID                             : 1
Format                         : AVC
Format/Info                    : Advanced Video Codec
Format profile                 : [email protected]
Format settings, CABAC         : Yes
Format settings, ReFrames      : 5 frames
Codec ID                       : avc1
Codec ID/Info                  : Advanced Video Coding
Duration                       : 19mn 53s
Bit rate                       : 1 482 Kbps
Width                          : 960 pixels
Height                         : 540 pixels
Display aspect ratio           : 16:9
Frame rate mode                : Constant
Frame rate                     : 25.000 fps
Color space                    : YUV
Chroma subsampling             : 4:2:0
Bit depth                      : 8 bits
Scan type                      : Progressive
Bits/(Pixel*Frame)             : 0.114
Stream size                    : 211 MiB (92%)

Audio
ID                             : 2
Format                         : AAC
Format/Info                    : Advanced Audio Codec
Format profile                 : LC
Codec ID                       : 40
Duration                       : 19mn 53s
Bit rate mode                  : Constant
Bit rate                       : 126 Kbps
Channel(s)                     : 2 channels
Channel positions              : Front: L R
Sampling rate                  : 44.1 KHz
Compression mode               : Lossy
Stream size                    : 17.9 MiB (8%)


YouTube Video:
Category:TV
Language:English  English
Total Size:229.65 MB
Info Hash:190AFFBD63101A23E181FD591FD1C19E1D815A56
Added By:SunnyZ Verified Uploader
Date Added:2021-06-10 13:40:28
Torrent Status:Torrent Verified


Ratings:Not Yet Rated (Log in to rate it)


Tracker:
udp://tracker.cyberia.is:6969/announce

This Torrent also has backup trackers
URLSeedersLeechersCompleted
udp://tracker.cyberia.is:6969/announce000
udp://tracker.coppersurfer.tk:80000
udp://glotorrents.pw:6969/announce000
udp://tracker.opentrackr.org:1337/announce211035
udp://exodus.desync.com:696913522


File List: 





Comments
No comments still posted