Download Karnan (2021) 1080p Tamil HDRip x264 AAC HC-ESub By Full4Movies mkv torrent - GloDLS
Login
Username:
Password:
Remember Me:
[Signup]
[Recover Account]
Friends
Angie Torrents
Friendly Site

Pirateiro
Friendly site

Free Courses Online
Friendly site

ETTV
Friendly site

ProStyleX
Friendly site

KaranPC
Friendly site

P2PDL.com
Friendly site

OneHack
Friendly site

IGGGames
Friendly site

Torrent Details For "Karnan (2021) 1080p Tamil HDRip x264 AAC HC-ESub By Full4Movies mkv"

Karnan (2021) 1080p Tamil HDRip x264 AAC HC-ESub By Full4Movies mkv

To download this torrent, you need a BitTorrent client: Vuze or BTGuard
Download this torrent
Download using Magnet Link

Health:
Seeds: 325
Leechers: 80
Completed: 1,833 
Last Checked: 04-05-2021 17:08:26

Uploader Reputation points : 5567
External: Torrent






Write a Review for the Uploader:   5   Say Thanks with one good review:
Share on Facebook


Details
Name:Karnan (2021) 1080p Tamil HDRip x264 AAC HC-ESub By Full4Movies mkv
Description:


Visit Us = https://www.full4movies.biz/



General
Complete name                  : Karnan (2021) 1080p Tamil HDRip x264 AAC HC-ESub By Full4Movies.mkv
Format                         : Matroska
Format version                 : Version 4 / Version 2
File size                      : 2.56 GiB
Duration                       : 2 h 36 min
Overall bit rate               : 2 346 kb/s
Encoded date                   : UTC 2021-05-01 06:24:19
Writing application            : mkvmerge v8.3.0 ('Over the Horizon') 64bit
Writing library                : libebml v1.3.1 + libmatroska v1.4.2
Attachments                    : cropped-full4movies-Logo.png

Video
ID                             : 1
Format                         : AVC
Format/Info                    : Advanced Video Codec
Format profile                 : [email protected]
Format settings, CABAC         : Yes
Format settings, RefFrames     : 4 frames
Codec ID                       : V_MPEG4/ISO/AVC
Duration                       : 2 h 36 min
Bit rate                       : 2 166 kb/s
Width                          : 1 920 pixels
Height                         : 800 pixels
Display aspect ratio           : 2.40:1
Frame rate mode                : Constant
Frame rate                     : 24.000 FPS
Color space                    : YUV
Chroma subsampling             : 4:2:0
Bit depth                      : 8 bits
Scan type                      : Progressive
Bits/(Pixel*Frame)             : 0.059
Stream size                    : 2.35 GiB (92%)
Writing library                : x264 core 157 r2935 545de2f
Language                       : Tamil
Default                        : Yes
Forced                         : No

Audio
ID                             : 2
Format                         : AAC
Format/Info                    : Advanced Audio Codec
Format profile                 : LC
Codec ID                       : A_AAC
Duration                       : 2 h 36 min
Bit rate                       : 196 kb/s
Channel(s)                     : 2 channels
Channel positions              : Front: L R
Sampling rate                  : 48.0 kHz
Frame rate                     : 46.875 FPS (1024 SPF)
Compression mode               : Lossy
Stream size                    : 219 MiB (8%)
Language                       : Tamil
Default                        : Yes
Forced                         : No

Screen Shoots





YouTube Video:
Category:Movies
Language:Tamil
Total Size:2.56 GB
Info Hash:926E140074B7233A3A298C71ECB864B69C54D0DB
Added By:india4movie Verified Uploader
Date Added:2021-05-01 22:08:25
Torrent Status:Torrent Verified


Ratings:Not Yet Rated (Log in to rate it)


Tracker:
udp://tracker.opentrackr.org:1337/announce

This Torrent also has backup trackers
URLSeedersLeechersCompleted
udp://tracker.opentrackr.org:1337/announce7326617
udp://tracker.cyberia.is:6969/announce000
udp://9.rarbg.me:2980/announce4610490
udp://open.stealth.si:80/announce247118
udp://exodus.desync.com:6969/announce194115
udp://tracker.moeking.me:6969/announce17492
udp://explodie.org:6969/announce000
udp://tracker.openbittorrent.com:80/announce54610
udp://inferno.demonoid.is:3391/announce17368
udp://tracker.torrent.eu.org:451/announce207106
udp://ipv4.tracker.harry.lu:80/announce950
udp://tracker.uw0.xyz:6969/announce274102
udp://tracker.coppersurfer.tk:6969/announce000
udp://exodus.desync.com:6969/announce194115
udp://tracker.tiny-vps.com:6969/announce000


File List: 





Comments
No comments still posted