Download LSD 2 Love, Sex Aur Dhokha 2 (2024) Hindi 720p NF WEBRip DD 5 1 x265 HEVC ESub - SHADOW [ProtonMovies] mkv torrent - GloDLS
Torrent Details For "LSD 2 Love, Sex Aur Dhokha 2 (2024) Hindi 720p NF WEBRip DD 5 1 x265 HEVC ESub - SHA..."

LSD 2 Love, Sex Aur Dhokha 2 (2024) Hindi 720p NF WEBRip DD 5 1 x265 HEVC ESub - SHA...

To download this torrent, you need a BitTorrent client: Vuze or BTGuard
Download this torrent
Download using Magnet Link

Health:
Seeds: 1
Leechers: 11
Completed:
Last Checked: 15-06-2024 16:38:14

Uploader Reputation points : 2696





Write a Review for the Uploader:   5   Say Thanks with one good review:
Share on Facebook


Details
Name:LSD 2 Love, Sex Aur Dhokha 2 (2024) Hindi 720p NF WEBRip DD 5 1 x265 HEVC ESub - SHA...
Description:
"Show your support to ProtonMovies"



********************************

"Show your support to ProtonMovies"

"@Team Shadow"

"AlejandroAXL"

We Keep All Torrents. In case of re-seed, please pm Or Comment On Torrent For Re-Seed  

********************************


Format                                   : Matroska
Format version                           : Version 4
File size                                : 804 MiB
Duration                                 : 1 h 59 min
Overall bit rate                         : 945 kb/s
Encoded date                             : UTC 2024-06-14 18:00:59
Writing application                      : mkvmerge v85.0 ('Shame For You') 64-bit
Writing library                          : libebml v1.4.5 + libmatroska v1.7.1

Video
ID                                       : 1
Format                                   : HEVC
Format/Info                              : High Efficiency Video Coding
Format profile                           : [email protected]@Main
Codec ID                                 : V_MPEGH/ISO/HEVC
Duration                                 : 1 h 59 min
Bit rate                                 : 751 kb/s
Width                                    : 1 280 pixels
Height                                   : 720 pixels
Display aspect ratio                     : 16:9
Frame rate mode                          : Constant
Frame rate                               : 25.000 FPS
Color space                              : YUV
Chroma subsampling                       : 4:2:0
Bit depth                                : 8 bits
Bits/(Pixel*Frame)                       : 0.033
Stream size                              : 639 MiB (79%)
Writing library                          : x265 3.2.1+1-b5c86a64bbbe:[Windows][GCC 9.2.0][64 bit] 8bit+10bit+12bit
Encoding settings                        : cpuid=1111039 / frame-threads=5 / numa-pools=64,0,0,0 / wpp / no-pmode / no-pme / no-psnr / no-ssim / log-level=2 / input-csp=1 / input-res=1280x720 / interlace=0 / total-frames=0 / level-idc=0 / high-tier=1 / uhd-bd=0 / ref=3 / no-allow-non-conformance / no-repeat-headers / annexb / no-aud / no-hrd / info / hash=0 / no-temporal-layers / open-gop / min-keyint=25 / keyint=250 / gop-lookahead=0 / bframes=4 / b-adapt=2 / b-pyramid / bframe-bias=0 / rc-lookahead=20 / lookahead-slices=4 / scenecut=40 / radl=0 / no-splice / no-intra-refresh / ctu=64 / min-cu-size=8 / no-rect / no-amp / max-tu-size=32 / tu-inter-depth=1 / tu-intra-depth=1 / limit-tu=0 / rdoq-level=0 / dynamic-rd=0.00 / no-ssim-rd / signhide / no-tskip / nr-intra=0 / nr-inter=0 / no-constrained-intra / strong-intra-smoothing / max-merge=3 / limit-refs=1 / no-limit-modes / me=1 / subme=2 / merange=57 / temporal-mvp / no-hme / weightp / no-weightb / no-analyze-src-pics / deblock=0:0 / sao / no-sao-non-deblock / rd=3 / selective-sao=4 / early-skip / rskip / no-fast-intra / no-tskip-fast / no-cu-lossless / b-intra / no-splitrd-skip / rdpenalty=0 / psy-rd=2.00 / psy-rdoq=0.00 / no-rd-refine / no-lossless / cbqpoffs=0 / crqpoffs=0 / rc=abr / bitrate=750 / qcomp=0.60 / qpstep=4 / stats-write=0 / stats-read=2 / cplxblur=20.0 / qblur=0.5 / ipratio=1.40 / pbratio=1.30 / aq-mode=2 / aq-strength=1.00 / cutree / zone-count=0 / no-strict-cbr / qg-size=32 / no-rc-grain / qpmax=69 / qpmin=0 / no-const-vbv / sar=1 / overscan=0 / videoformat=5 / range=0 / colorprim=1 / transfer=1 / colormatrix=1 / chromaloc=0 / display-window=0 / cll=0,0 / min-luma=0 / max-luma=255 / log2-max-poc-lsb=8 / vui-timing-info / vui-hrd-info / slices=1 / no-opt-qp-pps / no-opt-ref-list-length-pps / no-multi-pass-opt-rps / scenecut-bias=0.05 / no-opt-cu-delta-qp / no-aq-motion / no-hdr / no-hdr-opt / no-dhdr10-opt / no-idr-recovery-sei / analysis-reuse-level=5 / scale-factor=0 / refine-intra=0 / refine-inter=0 / refine-mv=1 / refine-ctu-distortion=0 / no-limit-sao / ctu-info=0 / no-lowpass-dct / refine-analysis-type=0 / copy-pic=1 / max-ausize-factor=1.0 / no-dynamic-refine / no-single-sei / no-hevc-aq / no-svt / no-field / qp-adaptation-range=1.00
Default                                  : Yes
Forced                                   : No
Color range                              : Limited
Color primaries                          : BT.709
Transfer characteristics                 : BT.709
Matrix coefficients                      : BT.709

Audio
ID                                       : 2
Format                                   : AC-3
Format/Info                              : Audio Coding 3
Commercial name                          : Dolby Digital
Codec ID                                 : A_AC3
Duration                                 : 1 h 59 min
Bit rate mode                            : Constant
Bit rate                                 : 192 kb/s
Channel(s)                               : 6 channels
Channel layout                           : L R C LFE Ls Rs
Sampling rate                            : 48.0 kHz
Frame rate                               : 31.250 FPS (1536 SPF)
Compression mode                         : Lossy
Delay relative to video                  : -105 ms
Stream size                              : 163 MiB (20%)
Language                                 : Hindi
Service kind                             : Complete Main
Default                                  : Yes
Forced                                   : No

Text
ID                                       : 3
Format                                   : UTF-8
Codec ID                                 : S_TEXT/UTF8
Codec ID/Info                            : UTF-8 Plain Text
Duration                                 : 1 h 47 min
Bit rate                                 : 90 b/s
Count of elements                        : 2010
Stream size                              : 71.7 KiB (0%)
Language                                 : English
Default                                  : No
Forced                                   : No






YouTube Video:
Category:Movies
Language:Hindi  Hindi
Total Size:804.37 MB
Info Hash:08C3220ED6F6BA9122EE509C5D515A738AB6696D
Added By:trueHD Verified Uploader
Date Added:2024-06-15 23:38:12
Torrent Status:Torrent Verified


Ratings:Not Yet Rated (Log in to rate it)


Tracker:
udp://tracker.opentrackr.org:1337/announce

This Torrent also has backup trackers
URLSeedersLeechersCompleted
udp://tracker.opentrackr.org:1337/announce000
https://tracker.gbitt.info:443/announce000
http://tracker.gbitt.info:80/announce000
udp://tracker.tiny-vps.com:6969/announce000
udp://tracker.theoks.net:6969/announce000
udp://tracker.dump.cl:6969/announce000
udp://tracker.bittor.pw:1337/announce000
https://tracker.bt4g.com:443/announce000
udp://open.stealth.si:80/announce000
udp://tracker.torrent.eu.org:451/announce000
udp://bubu.mapfactor.com:6969/announce000
https://tracker.yemekyedim.com:443/announce000
udp://ec2-18-191-163-220.us-east-2.compute.amazonaws.com:6969/announce000
udp://open.demonoid.ch:6969/announce000


File List: 





Comments
No comments still posted