Download Reyka S02 (2024) Rus 1080р WEBRip ViruseProject torrent - GloDLS
Torrent Details For "Reyka S02 (2024) Rus 1080р WEBRip ViruseProject"

Reyka S02 (2024) Rus 1080р WEBRip ViruseProject

To download this torrent, you need a BitTorrent client: Vuze or BTGuard
Download this torrent
Download using Magnet Link

Health:
Seeds: 9
Leechers: 138
Completed:
Last Checked: 15-02-2024 11:01:39

Uploader Reputation points : 2223





Write a Review for the Uploader:   0   Say Thanks with one good review:
Share on Facebook
TV Info

Reyka

The series follows a flawed but brilliant criminal profiler, Reyka Gama. Haunted by her past, she investigates a string of brutal murders committed by a serial killer in the sugar cane fields of KwaZulu-Natal. Having been abducted as a child by a farmer named Speelman, Reyka is traumatised by the experience but this also helps her enter the minds of Africa's most notorious criminals and turn them inside out.



Details
Name:Reyka S02 (2024) Rus 1080р WEBRip ViruseProject
Description:
Рейка / Reyka / сезон 2



https://www.imdb.com/title/tt10163204/






General
Unique ID                                : 249180648332144227746996790412011856562 (0xBB76727CE8DFA2DABBB454C4D8C362B2)
Complete name                            : Reyka.S02E01.1080p.WEBRip.ViruseProject.mkv
Format                                   : Matroska
Format version                           : Version 4
File size                                : 1.78 GiB
Duration                                 : 51 min 55 s
Overall bit rate                         : 4 913 kb/s
Encoded date                             : UTC 2024-02-15 05:21:44
Writing application                      : mkvmerge v8.3.0 ('Over the Horizon') 64bit
Writing library                          : libebml v1.3.1 + libmatroska v1.4.2

Video
ID                                       : 1
Format                                   : AVC
Format/Info                              : Advanced Video Codec
Format profile                           : [email protected]
Format settings                          : CABAC / 3 Ref Frames
Format settings, CABAC                   : Yes
Format settings, Reference frames        : 3 frames
Format settings, GOP                     : M=1, N=30
Codec ID                                 : V_MPEG4/ISO/AVC
Duration                                 : 51 min 55 s
Bit rate                                 : 4 721 kb/s
Width                                    : 1 920 pixels
Height                                   : 1 080 pixels
Display aspect ratio                     : 16:9
Frame rate mode                          : Constant
Frame rate                               : 25.000 FPS
Color space                              : YUV
Chroma subsampling                       : 4:2:0
Bit depth                                : 8 bits
Scan type                                : Progressive
Bits/(Pixel*Frame)                       : 0.091
Stream size                              : 1.71 GiB (96%)
Language                                 : English
Default                                  : Yes
Forced                                   : No

Audio
ID                                       : 2
Format                                   : AAC LC
Format/Info                              : Advanced Audio Codec Low Complexity
Codec ID                                 : A_AAC-2
Duration                                 : 51 min 55 s
Bit rate                                 : 192 kb/s
Channel(s)                               : 2 channels
Channel layout                           : L R
Sampling rate                            : 48.0 kHz
Frame rate                               : 46.875 FPS (1024 SPF)
Compression mode                         : Lossy
Stream size                              : 70.3 MiB (4%)
Title                                    : ViruseProject
Language                                 : Russian
Default                                  : Yes
Forced                                   : No
YouTube Video:   
Category:TV
Language:Russian  Russian
Total Size:14.13 GB
Info Hash:87981F031378C1CA09AE4B0EC55B8D9CCB355BE0
Added By:viruse Verified UploaderTV Uploader
Date Added:2024-02-15 18:54:36
Torrent Status:Torrent Verified


Ratings:Not Yet Rated (Log in to rate it)


Tracker:
udp://opentor.org:2710/announce

This Torrent also has backup trackers
URLSeedersLeechersCompleted
udp://opentor.org:2710/announce000
udp://tracker.torrent.eu.org:451/announce2171
udp://tracker.cyberia.is:6969/announce000
udp://exodus.desync.com:6969/announce1131
udp://tracker.moeking.me:6969/announce2171
udp://tracker.opentrackr.org:1337/announce1411
udp://tracker.tiny-vps.com:6969/announce0171
udp://open.stealth.si:80/announce2171
udp://tracker.iamhansen.xyz:2000/announce000
udp://tracker.theoks.net:6969/announce1160
udp://retracker.lanta-net.ru:2710/announce000
udp://open.demonii.si:1337/announce000
udp://tracker.uw0.xyz:6969/announce000
udp://ipv4.tracker.harry.lu:80/announce000
udp://tracker.coppersurfer.tk:6969/announce000


File List: 





Comments
No comments still posted