Torrent Details For "Mission Impossible Fallout 2018 1080p WEB-DL DD 5 1 x264 [MW]"

Mission Impossible Fallout 2018 1080p WEB-DL DD 5 1 x264 [MW]

To download this torrent, you need a BitTorrent client: Vuze or BTGuard
Download this torrent
Download using Magnet Link

Health:
Seeds: 1,690
Leechers: 1,096
Completed: 5,821 
Last Checked: 08-11-2018 07:24:29

Uploader Reputation points : 4972
External: Torrent



BTGuard - BitTorrent Anonymously


Write a Review for the Uploader:   20   Say Thanks with one good review:
Share on Facebook


Details
Name:Mission Impossible Fallout 2018 1080p WEB-DL DD 5 1 x264 [MW]
Description:
 
 General
Format : Matroska
Format version : Version 4 / Version 2
File size : 2.90 GiB
Duration : 2 h 27 min
Overall bit rate : 2 814 kb/s
 Video
ID : 1
Format : AVC
Format/Info : Advanced Video Codec
Format profile : [email protected]  Format settings : CABAC / 4 Ref Frames
Format settings, CABAC : Yes
Format settings, RefFrames : 4 frames
Codec ID : V_MPEG4/ISO/AVC
Duration : 2 h 27 min
Bit rate : 2 500 kb/s
Width : 1 920 pixels
Height : 804 pixels
Display aspect ratio : 2.40:1
Frame rate mode : Constant
Frame rate : 23.976 (24000/1001) FPS
Color space : YUV
Chroma subsampling : 4:2:0
Bit depth : 8 bits
Scan type : Progressive
Bits/(Pixel*Frame) : 0.068
Stream size : 2.51 GiB (86%)
Writing library : x264 core 155 r2901 7d0ff22
Default : Yes
Forced : No
 Audio
ID : 2
Format : AC-3
Format/Info  : Audio Coding 3
Codec ID : A_AC3
Duration : 2 h 27 min
Bit rate mode : Constant
Bit rate : 384 kb/s
Channel(s) : 6 channels
Channel positions : Front: L C R, Side: L R, LFE
Sampling rate : 48.0 kHz
Frame rate : 31.250 FPS (1536 SPF)
Bit depth : 16 bits
Compression mode : Lossy
Stream size : 405 MiB (14%)
Language : English
Service kind : Complete Main
Default : Yes
Forced : No
 Text
ID : 3
Format : UTF-8
Codec ID : S_TEXT/UTF8
Codec ID/Info : UTF-8 Plain Text
Duration : 2 h 19 min
Bit rate : 92 b/s
Count of elements : 1856
Stream size : 94.8 KiB (0%)
Language : English
Default : Yes
Forced : No
     https://pichub.site/image/Vhbgs            https://pichub.site/image/VhWDR            https://pichub.site/image/VhenB               https://pichub.site/image/Vi4t6                  https://pichub.site/image/VhqYY               https://pichub.site/image/Vif2t  
 
YouTube Video:
Category:Movies
Language:English  English
Total Size:2.90 GB
Info Hash:15271BC7DB3C72743335F0D7EC1037CF51A67B2E
Added By:MovieFreak Verified UploaderMovie Pirate
Date Added:07-11-2018 13:27:20
Torrent Status:Torrent Verified


Ratings:Not Yet Rated (Log in to rate it)


Tracker:
udp://tracker.coppersurfer.tk:6969/announce

This Torrent also has backup trackers
URLSeedersLeechersCompleted
udp://tracker.coppersurfer.tk:6969/announce247154933
udp://tracker.pirateparty.gr:6969/announce247154933
udp://tracker.coppersurfer.tk:6969/announce247154933
udp://tracker.tiny-vps.com:6969/announce157108306
udp://9.rarbg.me:2740/announce159103858
udp://9.rarbg.to:2790/announce159105858
udp://public.popcorn-tracker.org:6969/announce000
udp://tracker.vanitycore.co:6969/announce154103340
udp://tracker.opentrackr.org:1337/announce165110378
udp://open.stealth.si:80/announce155105282


File List: 





Comments
No comments still posted