Download Night in Paradise 2020 DUBBED HDRip XviD B4ND1T69 torrent - GloDLS
Login
Username:
Password:
Remember Me:
[Signup]
[Recover Account]
Friends
Angie Torrents
Friendly Site

Pirateiro
Friendly site

Free Courses Online
Friendly site

ETTV
Friendly site

ProStyleX
Friendly site

KaranPC
Friendly site

P2PDL.com
Friendly site

OneHack
Friendly site

IGGGames
Friendly site

Torrent Details For "Night in Paradise 2020 DUBBED HDRip XviD B4ND1T69"

Night in Paradise 2020 DUBBED HDRip XviD B4ND1T69

To download this torrent, you need a BitTorrent client: Vuze or BTGuard
Download this torrent
Download using Magnet Link

Health:
Seeds: 52
Leechers: 47
Completed: 32 
Last Checked: 04-05-2021 12:47:55

Uploader Reputation points : 778
External: Torrent






Write a Review for the Uploader:   0   Say Thanks with one good review:
Share on Facebook


Details
Name:Night in Paradise 2020 DUBBED HDRip XviD B4ND1T69
Description:
Night.in.Paradise.2020.DUBBED.HDRip.XviD.B4ND1T69



Director: Park Hoon-jung
Writer: Park Hoon-jung
Stars: Tae-goo Eom, Yeo-bin Jeon, Seung-Won Cha

Plot/Story:
Hiding out in Jeju Island following a brutal tragedy, a wronged mobster with a target on his back connects with a woman who has her own demons.

General
Complete name               : Night.in.Paradise.2020.DUBBED.HDRip.XviD.B4ND1T69.avi
Format                      : AVI
Format/Info                 : Audio Video Interleave
File size                   : 1.18 GiB
Duration                    : 2 h 12 min
Overall bit rate            : 1 284 kb/s
Subtitles                   : Yes...Included(HI)

Video
ID                          : 0
Format                      : MPEG-4 Visual
Format profile              : Advanced [email protected]
Format settings, BVOP       : 2
Format settings, QPel       : No
Format settings, GMC        : No warppoints
Format settings, Matrix     : Default (H.263)
Codec ID                    : XVID
Codec ID/Hint               : XviD
Duration                    : 2 h 12 min
Bit rate                    : 1 143 kb/s
Width                       : 720 pixels
Height                      : 304 pixels
Display aspect ratio        : 2.35:1
Frame rate                  : 23.976 (24000/1001) FPS
Color space                 : YUV
Chroma subsampling          : 4:2:0
Bit depth                   : 8 bits
Scan type                   : Progressive
Compression mode            : Lossy
Bits/(Pixel*Frame)          : 0.218
Stream size                 : 1.05 GiB (89%)
Writing library             : XviD 64

Audio
ID                          : 1
Format                      : MPEG Audio
Format version              : Version 1
Format profile              : Layer 3
Codec ID                    : 55
Codec ID/Hint               : MP3
Duration                    : 2 h 12 min
Bit rate mode               : Constant
Bit rate                    : 128 kb/s
Channel(s)                  : 2 channels
Sampling rate               : 48.0 kHz
Compression mode            : Lossy
Stream size                 : 121 MiB (10%)
Alignment                   : Aligned on interleaves
Interleave, duration        : 24  ms (0.58 video frame)

Screenshots:










Please Seed For As Long As Possible
Or At Least 1:1 Ratio...Thanks
Enjoy Peeps
YouTube Video:   
Category:Movies
Language:English  English
Total Size:1.18 GB
Info Hash:465F1E973BF84B1B7E1E360A1F641500D46A4A85
Added By:B4ND1T69 Verified UploaderMovie Pirate
Date Added:2021-05-04 18:29:52
Torrent Status:Torrent Verified


Ratings:Not Yet Rated (Log in to rate it)


Tracker:
udp://tracker.opentrackr.org:1337/announce

This Torrent also has backup trackers
URLSeedersLeechersCompleted
udp://tracker.opentrackr.org:1337/announce696
udp://exodus.desync.com:6969/announce563
udp://open.demonii.si:1337/announce000
udp://9.rarbg.to:2750/announce673
udp://open.stealth.si:80/announce555
udp://tracker.uw0.xyz:6969/announce643
udp://tracker.tiny-vps.com:6969/announce000
udp://fasttracker.foreverpirates.co:6969/announce501
udp://explodie.org:6969/announce220
udp://tracker.cyberia.is:6969/announce000
udp://ipv4.tracker.harry.lu:80/announce000
udp://opentracker.i2p.rocks:6969/announce654
udp://tracker.moeking.me:6969/announce643
udp://opentor.org:2710/announce554
udp://tracker.dler.org:6969/announce000


File List: 





Comments
No comments still posted