Download Oppenheimer 2023 2160p REMUX IMAX Dolby Vision And HDR10 PLUS ENG ITA LATINO DTS-HD Master DDP5 1 DV x265 MKV-BEN THE MEN torrent - GloDLS
Torrent Details For "Oppenheimer 2023 2160p REMUX IMAX Dolby Vision And HDR10 PLUS ENG ITA LATINO DTS-HD M..."

Oppenheimer 2023 2160p REMUX IMAX Dolby Vision And HDR10 PLUS ENG ITA LATINO DTS-HD M...

To download this torrent, you need a BitTorrent client: Vuze or BTGuard
Download this torrent
Download using Magnet Link

Health:
Seeds: 1,376
Leechers: 1,172
Completed: 10,374 
Last Checked: 22-11-2023 05:46:38

Uploader Reputation points : 246





Write a Review for the Uploader:   0   Say Thanks with one good review:
Share on Facebook


Details
Name:Oppenheimer 2023 2160p REMUX IMAX Dolby Vision And HDR10 PLUS ENG ITA LATINO DTS-HD M...
Description:
Oppenheimer.2023.2160p.REMUX.IMAX.Dolby.Vision.And.HDR10.PLUS.ENG.ITA.LATINO.DTS-HD.Master.DDP5.1.DV.x265.MKV-BEN.THE.MEN

https://www.imdb.com/title/tt15398776/

The story of American scientist, J. Robert Oppenheimer, and his role in the development of the atomic bomb.

ENG ESP SUBS






Format                                   : Matroska
Format version                           : Version 4
File size                                : 86.5 GiB
Duration                                 : 3 h 0 min
Overall bit rate mode                    : Variable
Overall bit rate                         : 68.7 Mb/s
Frame rate                               : 23.976 FPS
Movie name                               : Oppenheimer.2023.2160p.REMUX.IMAX[Ben The Men]
Encoded date                             : 2023-11-17 06:09:17 UTC
Writing application                      : mkvmerge v80.0 ('Roundabout') 64-bit
Writing library                          : libebml v1.4.4 + libmatroska v1.7.1

Video
ID                                       : 1
Format                                   : HEVC
Format/Info                              : High Efficiency Video Coding
Format profile                           : Main [email protected]@High
HDR format                               : Dolby Vision, Version 1.0, dvhe.08.06, BL+RPU, HDR10 compatible / SMPTE ST 2094 App 4, Version 1, HDR10+ Profile B compatible
Codec ID                                 : V_MPEGH/ISO/HEVC
Duration                                 : 3 h 0 min
Bit rate                                 : 61.5 Mb/s
Width                                    : 3 840 pixels
Height                                   : 2 160 pixels
Display aspect ratio                     : 16:9
Frame rate mode                          : Constant
Frame rate                               : 23.976 (24000/1001) FPS
Color space                              : YUV
Chroma subsampling                       : 4:2:0 (Type 2)
Bit depth                                : 10 bits
Bits/(Pixel*Frame)                       : 0.309
Stream size                              : 77.4 GiB (89%)
Title                                    : BEN.THE.MEN
Language                                 : English
Default                                  : Yes
Forced                                   : No
Color range                              : Limited
Color primaries                          : BT.2020
Transfer characteristics                 : PQ
Matrix coefficients                      : BT.2020 non-constant
Mastering display color primaries        : Display P3
Mastering display luminance              : min: 0.0050 cd/m2, max: 1000 cd/m2
Maximum Content Light Level              : 186 cd/m2
Maximum Frame-Average Light Level        : 147 cd/m2

Audio #1
ID                                       : 2
ID in the original source medium         : 4352 (0x1100)
Format                                   : DTS XLL
Format/Info                              : Digital Theater Systems
Commercial name                          : DTS-HD Master Audio
Codec ID                                 : A_DTS
Duration                                 : 3 h 0 min
Bit rate mode                            : Variable
Bit rate                                 : 3 567 kb/s
Channel(s)                               : 6 channels
Channel layout                           : C L R Ls Rs LFE
Sampling rate                            : 48.0 kHz
Frame rate                               : 93.750 FPS (512 SPF)
Bit depth                                : 24 bits
Compression mode                         : Lossless
Stream size                              : 4.49 GiB (5%)
Title                                    : BTM DTS-HD Master
Language                                 : English
Default                                  : No
Forced                                   : No
Original source medium                   : Blu-ray

Audio #2
ID                                       : 3
Format                                   : E-AC-3
Format/Info                              : Enhanced AC-3
Commercial name                          : Dolby Digital Plus
Codec ID                                 : A_EAC3
Duration                                 : 3 h 0 min
Bit rate mode                            : Constant
Bit rate                                 : 960 kb/s
Channel(s)                               : 6 channels
Channel layout                           : L R C LFE Ls Rs
Sampling rate                            : 48.0 kHz
Frame rate                               : 31.250 FPS (1536 SPF)
Compression mode                         : Lossy
Stream size                              : 1.21 GiB (1%)
Title                                    : BTM DDP5.1
Language                                 : English
Service kind                             : Complete Main
Default                                  : Yes
Forced                                   : No

Audio #3
ID                                       : 4
Format                                   : DTS
Format/Info                              : Digital Theater Systems
Codec ID                                 : A_DTS
Duration                                 : 3 h 0 min
Bit rate mode                            : Constant
Bit rate                                 : 768 kb/s
Channel(s)                               : 6 channels
Channel layout                           : C L R Ls Rs LFE
Sampling rate                            : 48.0 kHz
Frame rate                               : 93.750 FPS (512 SPF)
Bit depth                                : 24 bits
Compression mode                         : Lossy
Stream size                              : 991 MiB (1%)
Title                                    : BTM DTS 5.1
Language                                 : Spanish
Default                                  : Yes
Forced                                   : No

Audio #4
ID                                       : 5
Format                                   : E-AC-3
Format/Info                              : Enhanced AC-3
Commercial name                          : Dolby Digital Plus
Codec ID                                 : A_EAC3
Duration                                 : 3 h 0 min
Bit rate mode                            : Constant
Bit rate                                 : 960 kb/s
Channel(s)                               : 6 channels
Channel layout                           : L R C LFE Ls Rs
Sampling rate                            : 48.0 kHz
Frame rate                               : 31.250 FPS (1536 SPF)
Compression mode                         : Lossy
Stream size                              : 1.21 GiB (1%)
Title                                    : BTM DDP5.1
Language                                 : Spanish
Service kind                             : Complete Main
Default                                  : Yes
Forced                                   : No

Audio #5
ID                                       : 6
Format                                   : E-AC-3
Format/Info                              : Enhanced AC-3
Commercial name                          : Dolby Digital Plus
Codec ID                                 : A_EAC3
Duration                                 : 3 h 0 min
Bit rate mode                            : Constant
Bit rate                                 : 960 kb/s
Channel(s)                               : 6 channels
Channel layout                           : L R C LFE Ls Rs
Sampling rate                            : 48.0 kHz
Frame rate                               : 31.250 FPS (1536 SPF)
Compression mode                         : Lossy
Stream size                              : 1.21 GiB (1%)
Title                                    : BTM DDP5.1
Language                                 : Italian
Service kind                             : Complete Main
Default                                  : Yes
Forced                                   : No
YouTube Video:   
Category:Movies
Language:English  English
Total Size:86.53 GB
Info Hash:B12E2AD004742AE1348E4E22EEBE8FCAC07C88D7
Added By:Freddy1714 Verified Uploader
Date Added:2023-11-17 14:43:16
Torrent Status:Torrent Verified


Ratings:Not Yet Rated (Log in to rate it)


Tracker:
udp://tracker.opentrackr.org:1337/announce

This Torrent also has backup trackers
URLSeedersLeechersCompleted
udp://tracker.opentrackr.org:1337/announce2212012,158
udp://open.stealth.si:80/announce1811561,671
udp://tracker.torrent.eu.org:451/announce1941691,770
http://tracker.gbitt.info:80/announce62411,018
http://bt.okmp3.ru:2710/announce1239042
udp://6ahddutb1ucc3cp.ru:6969/announce000
https://tracker.tamersunion.org:443/announce1431190
http://tracker.vraphim.com:6969/announce124102909
udp://tracker.cyberia.is:6969/announce330000
http://tracker2.dler.org:80/announce91797
udp://exodus.desync.com:6969/announce125981,146
udp://tracker.coppersurfer.tk:6969/announce000
udp://tracker.openbittorrent.com:80616610
udp://tracker.tiny-vps.com:6969/announce51511,643


File List: 





Comments
No comments still posted