Download Pandemonium (2023) Rus 1080р BDRip ViruseProject torrent - GloDLS
Login
Username:
Password:
Remember Me:
[Signup]
[Recover Account]
Friends
Angie Torrents
Friendly Site

Get Into Way
Friendly site

Free Courses Online
Friendly site

KaranPC
Friendly site

OneHack
Friendly site

IGGGames
Friendly site

Torrent Details For "Pandemonium (2023) Rus 1080р BDRip ViruseProject "

Pandemonium (2023) Rus 1080р BDRip ViruseProject

To download this torrent, you need a BitTorrent client: Vuze or BTGuard
Download this torrent
Download using Magnet Link

Health:
Seeds: 49
Leechers: 8
Completed: 418 
Last Checked: 16-06-2024 17:51:48

Uploader Reputation points : 2819





Write a Review for the Uploader:   0   Say Thanks with one good review:
Share on Facebook


Details
Name:Pandemonium (2023) Rus 1080р BDRip ViruseProject
Description:
Девятые врата: Пандемониум / Pandemonium / фильм / кино



https://www.imdb.com/title/tt22299048/






General
Unique ID                                : 237986224034088111095707439530448289620 (0xB30A7AC1F25314AA877A070A05EC7F54)
Complete name                            : X:\222 ЗАЛИВА 222\Pandemonium.2023.ViruseProject\Pandemonium.2023.1080p.BDRip.ViruseProject.mkv
Format                                   : Matroska
Format version                           : Version 4
File size                                : 3.28 GiB
Duration                                 : 1 h 36 min
Overall bit rate                         : 4 881 kb/s
Encoded date                             : UTC 2024-06-11 09:05:44
Writing application                      : mkvmerge v8.3.0 ('Over the Horizon') 64bit
Writing library                          : libebml v1.3.1 + libmatroska v1.4.2

Video
ID                                       : 1
Format                                   : AVC
Format/Info                              : Advanced Video Codec
Format profile                           : [email protected]
Format settings                          : CABAC / 3 Ref Frames
Format settings, CABAC                   : Yes
Format settings, Reference frames        : 3 frames
Format settings, GOP                     : M=1, N=30
Codec ID                                 : V_MPEG4/ISO/AVC
Duration                                 : 1 h 36 min
Bit rate                                 : 4 689 kb/s
Width                                    : 1 920 pixels
Height                                   : 804 pixels
Display aspect ratio                     : 2.40:1
Frame rate mode                          : Constant
Frame rate                               : 23.976 (24000/1001) FPS
Color space                              : YUV
Chroma subsampling                       : 4:2:0
Bit depth                                : 8 bits
Scan type                                : Progressive
Bits/(Pixel*Frame)                       : 0.127
Stream size                              : 3.15 GiB (96%)
Language                                 : English
Default                                  : Yes
Forced                                   : No

Audio
ID                                       : 2
Format                                   : AAC LC
Format/Info                              : Advanced Audio Codec Low Complexity
Codec ID                                 : A_AAC-2
Duration                                 : 1 h 36 min
Bit rate                                 : 192 kb/s
Channel(s)                               : 2 channels
Channel layout                           : L R
Sampling rate                            : 48.0 kHz
Frame rate                               : 46.875 FPS (1024 SPF)
Compression mode                         : Lossy
Stream size                              : 130 MiB (4%)
Title                                    : ViruseProject
Language                                 : Russian
Default                                  : Yes
Forced                                   : No
YouTube Video:   
Category:Movies
Language:Russian  Russian
Total Size:3.28 GB
Info Hash:99A5DA29EF100CCA11CE1673CDC93D1B69C53A05
Added By:viruse Verified UploaderTV Uploader
Date Added:2024-06-11 22:17:56
Torrent Status:Torrent Verified


Ratings:Not Yet Rated (Log in to rate it)


Tracker:
udp://opentor.org:2710/announce

This Torrent also has backup trackers
URLSeedersLeechersCompleted
udp://opentor.org:2710/announce000
udp://tracker.torrent.eu.org:451/announce101110
udp://tracker.cyberia.is:6969/announce000
udp://exodus.desync.com:6969/announce11277
udp://tracker.moeking.me:6969/announce000
udp://tracker.opentrackr.org:1337/announce62114
udp://tracker.tiny-vps.com:6969/announce210
udp://open.stealth.si:80/announce202117
udp://tracker.iamhansen.xyz:2000/announce000
udp://tracker.theoks.net:6969/announce000
udp://retracker.lanta-net.ru:2710/announce000
udp://open.demonii.si:1337/announce000
udp://tracker.uw0.xyz:6969/announce000
udp://ipv4.tracker.harry.lu:80/announce000
udp://tracker.coppersurfer.tk:6969/announce000


File List: 





Comments
No comments still posted