Download Pandemonium (2023) Rus HDRip ViruseProject torrent - GloDLS
Login
Username:
Password:
Remember Me:
[Signup]
[Recover Account]
Friends
Angie Torrents
Friendly Site

Get Into Way
Friendly site

Free Courses Online
Friendly site

KaranPC
Friendly site

OneHack
Friendly site

IGGGames
Friendly site

Torrent Details For "Pandemonium (2023) Rus HDRip ViruseProject"

Pandemonium (2023) Rus HDRip ViruseProject

To download this torrent, you need a BitTorrent client: Vuze or BTGuard
Download this torrent
Download using Magnet Link

Health:
Seeds: 14
Leechers: 1
Completed: 283 
Last Checked: 16-06-2024 17:51:34

Uploader Reputation points : 2819





Write a Review for the Uploader:   0   Say Thanks with one good review:
Share on Facebook


Details
Name:Pandemonium (2023) Rus HDRip ViruseProject
Description:
Девятые врата: Пандемониум / Pandemonium / фильм / кино



https://www.imdb.com/title/tt22299048/






General
Complete name                            : X:\222 ЗАЛИВА 222\Pandemonium.2023.ViruseProject\Pandemonium.2023.HDRip.ViruseProject.avi
Format                                   : AVI
Format/Info                              : Audio Video Interleave
File size                                : 1.40 GiB
Duration                                 : 1 h 36 min
Overall bit rate                         : 2 079 kb/s
Writing application                      : VirtualDubMod 1.5.10.2 (build 2540/release)
Writing library                          : VirtualDubMod build 2540/release

Video
ID                                       : 0
Format                                   : MPEG-4 Visual
Format profile                           : Advanced Simple@L5
Format settings                          : BVOP1
Format settings, BVOP                    : 1
Format settings, QPel                    : No
Format settings, GMC                     : No warppoints
Format settings, Matrix                  : Default (H.263)
Codec ID                                 : XVID
Codec ID/Hint                            : XviD
Duration                                 : 1 h 36 min
Bit rate                                 : 1 881 kb/s
Width                                    : 720 pixels
Height                                   : 304 pixels
Display aspect ratio                     : 2.40:1
Frame rate                               : 23.976 (24000/1001) FPS
Color space                              : YUV
Chroma subsampling                       : 4:2:0
Bit depth                                : 8 bits
Scan type                                : Progressive
Compression mode                         : Lossy
Bits/(Pixel*Frame)                       : 0.358
Stream size                              : 1.26 GiB (90%)
Writing library                          : XviD 69

Audio
ID                                       : 1
Format                                   : AC-3
Format/Info                              : Audio Coding 3
Commercial name                          : Dolby Digital
Codec ID                                 : 2000
Duration                                 : 1 h 36 min
Bit rate mode                            : Constant
Bit rate                                 : 192 kb/s
Channel(s)                               : 2 channels
Channel layout                           : L R
Sampling rate                            : 48.0 kHz
Frame rate                               : 31.250 FPS (1536 SPF)
Bit depth                                : 16 bits
Compression mode                         : Lossy
Stream size                              : 132 MiB (9%)
Alignment                                : Aligned on interleaves
Interleave, duration                     : 160  ms (3.84 video frames)
Interleave, preload duration             : 640  ms
Service kind                             : Complete Main
YouTube Video:   
Category:Movies
Language:Russian  Russian
Total Size:1.40 GB
Info Hash:65B560D608F9B0E86EB90545019CD295E568E19C
Added By:viruse Verified UploaderTV Uploader
Date Added:2024-06-11 22:19:50
Torrent Status:Torrent Verified


Ratings:Not Yet Rated (Log in to rate it)


Tracker:
udp://opentor.org:2710/announce

This Torrent also has backup trackers
URLSeedersLeechersCompleted
udp://opentor.org:2710/announce000
udp://tracker.torrent.eu.org:451/announce3075
udp://tracker.cyberia.is:6969/announce000
udp://exodus.desync.com:6969/announce3040
udp://tracker.moeking.me:6969/announce000
udp://tracker.opentrackr.org:1337/announce1080
udp://tracker.tiny-vps.com:6969/announce011
udp://open.stealth.si:80/announce7087
udp://tracker.iamhansen.xyz:2000/announce000
udp://tracker.theoks.net:6969/announce000
udp://retracker.lanta-net.ru:2710/announce000
udp://open.demonii.si:1337/announce000
udp://tracker.uw0.xyz:6969/announce000
udp://ipv4.tracker.harry.lu:80/announce000
udp://tracker.coppersurfer.tk:6969/announce000


File List: 





Comments
No comments still posted