Download Peacemaker (2022) 1080p 10Bit English Season 1 (EP 1 TO 3) WEB-HDRip x264 AC3 DD 5 1 ESub By Full4Movies torrent - GloDLS
HTML tutorial
Torrent Details For "Peacemaker (2022) 1080p 10Bit English Season 1 (EP 1 TO 3) WEB-HDRip x264 AC3 DD 5 1 ..."

Peacemaker (2022) 1080p 10Bit English Season 1 (EP 1 TO 3) WEB-HDRip x264 AC3 DD 5 1 ...

To download this torrent, you need a BitTorrent client: Vuze or BTGuard
Download this torrent
Download using Magnet Link

Health:
Seeds: 258
Leechers: 417
Completed: 1,738 
Last Checked: 13-01-2022 20:52:37

Uploader Reputation points : 7282





Write a Review for the Uploader:   10   Say Thanks with one good review:
Share on Facebook


Details
Name:Peacemaker (2022) 1080p 10Bit English Season 1 (EP 1 TO 3) WEB-HDRip x264 AC3 DD 5 1 ...
Description:


Visit Us = https://www.full4movies.sbs/



General
Complete name                  : Peacemaker (2022) 1080p 10Bit English Season 1 (EP 1 TO 3) WEB-HDRip x264 AC3 DD 5.1 ESub By Full4Movies
Format                         : Matroska
Format version                 : Version 4
File size                      : 621 MiB
Duration                       : 46 min 40 s
Overall bit rate               : 1 861 kb/s
Encoded date                   : UTC 2022-01-13 13:06:08
Writing application            : mkvmerge v8.3.0 ('Over the Horizon') 64bit
Writing library                : libebml v1.3.1 + libmatroska v1.4.2
Attachments                    : 383845052472320.jpg
Encoded by                     : Pahe.in™ Team

Video
ID                             : 1
Format                         : HEVC
Format/Info                    : High Efficiency Video Coding
Format profile                 : Main [email protected]@High
Codec ID                       : V_MPEGH/ISO/HEVC
Duration                       : 46 min 40 s
Bit rate                       : 1 475 kb/s
Width                          : 1 920 pixels
Height                         : 1 080 pixels
Display aspect ratio           : 16:9
Frame rate mode                : Constant
Frame rate                     : 23.976 (24000/1001) FPS
Color space                    : YUV
Chroma subsampling             : 4:2:0
Bit depth                      : 10 bits
Bits/(Pixel*Frame)             : 0.030
Stream size                    : 493 MiB (79%)
Writing library                : x265 3.2+5-gfbe9fef31:[Windows][GCC 9.2.0][64 bit] 10bit
Default                        : Yes
Forced                         : No
Color range                    : Limited
Color primaries                : BT.709
Matrix coefficients            : BT.709

Audio
ID                             : 2
Format                         : AC-3
Format/Info                    : Audio Coding 3
Commercial name                : Dolby Digital
Codec ID                       : A_AC3
Duration                       : 46 min 40 s
Bit rate mode                  : Constant
Bit rate                       : 384 kb/s
Channel(s)                     : 6 channels
Channel layout                 : L R C LFE Ls Rs
Sampling rate                  : 48.0 kHz
Frame rate                     : 31.250 FPS (1536 SPF)
Compression mode               : Lossy
Stream size                    : 128 MiB (21%)
Language                       : English
Service kind                   : Complete Main
Default                        : No
Forced                         : No

Text #1
ID                             : 3
Format                         : UTF-8
Codec ID                       : S_TEXT/UTF8
Codec ID/Info                  : UTF-8 Plain Text
Duration                       : 46 min 21 s
Bit rate                       : 98 b/s
Count of elements              : 943
Stream size                    : 33.5 KiB (0%)
Language                       : English
Default                        : Yes
Forced                         : No

Text #2
ID                             : 4
Format                         : UTF-8
Codec ID                       : S_TEXT/UTF8
Codec ID/Info                  : UTF-8 Plain Text
Duration                       : 46 min 24 s
Bit rate                       : 92 b/s
Count of elements              : 1524
Stream size                    : 31.3 KiB (0%)
Language                       : Spanish
Default                        : No
Forced                         : No

Screen Shoots







YouTube Video:
Category:TV
Language:English  English
Total Size:1.57 GB
Info Hash:F3CEDCB0DB2439A7E14B44254FEAC597F2672A38
Added By:india4movie Verified Uploader
Date Added:2022-01-13 22:34:06
Torrent Status:Torrent Verified


Ratings:Not Yet Rated (Log in to rate it)


Tracker:
udp://tracker.opentrackr.org:1337/announce

This Torrent also has backup trackers
URLSeedersLeechersCompleted
udp://tracker.opentrackr.org:1337/announce6269229
udp://9.rarbg.me:2790/announce2452363
udp://9.rarbg.to:2800/announce2452363
http://tracker.dler.org:6969/announce150
udp://tracker.internetwarriors.net:1337/announce4656140
udp://open.stealth.si:80/announce2645135
udp://fasttracker.foreverpirates.co:6969/announce000
udp://tracker.uw0.xyz:6969/announce000
udp://tracker.dler.org:6969/announce160
udp://opentor.org:2710/announce000
udp://open.stealth.si:80/announce2645135
udp://9.rarbg.me:2980/announce2452363
udp://tracker.openbittorrent.com:80/announce243510


File List: 





Comments
No comments still posted