Download Riddick 2013 1080p BluRay ENG LATINO DD 5 1 H264-BEN THE MEN torrent - GloDLS
Torrent Details For "Riddick 2013 1080p BluRay ENG LATINO DD 5 1 H264-BEN THE MEN"

Riddick 2013 1080p BluRay ENG LATINO DD 5 1 H264-BEN THE MEN

To download this torrent, you need a BitTorrent client: Vuze or BTGuard
Download this torrent
Download using Magnet Link

Health:
Seeds: 303
Leechers: 93
Completed: 700 
Last Checked: 16-06-2024 08:07:52

Uploader Reputation points : 1364





Write a Review for the Uploader:   3   Say Thanks with one good review:
Share on Facebook


Details
Name:Riddick 2013 1080p BluRay ENG LATINO DD 5 1 H264-BEN THE MEN
Description:
Riddick.2013.1080p.BluRay.ENG.LATINO.DD.5.1.H264-BEN.THE.MEN

https://www.youtube.com/watch?v=zH3O-CeZckE

https://www.imdb.com/title/tt1411250/

Left for dead on a sun-scorched planet, Riddick finds himself up against an alien race of predators. Activating an emergency beacon alerts two ships: one carrying a new breed of mercenary, the other captained by a man from Riddick's past.

ENG ESP SUBS







Format                                   : Matroska
Format version                           : Version 4
File size                                : 13.0 GiB
Duration                                 : 1 h 58 min
Overall bit rate mode                    : Variable
Overall bit rate                         : 15.7 Mb/s
Frame rate                               : 23.976 FPS
Movie name                               : Riddick.2013.1080p.BluRay[Ben The Men]
Encoded date                             : 2024-06-16 00:10:49 UTC
Writing application                      : mkvmerge v85.0 ('Shame For You') 64-bit
Writing library                          : libebml v1.4.5 + libmatroska v1.7.1 / Lavf60.16.100
Attachments                              : BEN.THE.MEN.TORRENTS.jpg

Video
ID                                       : 1
Format                                   : AVC
Format/Info                              : Advanced Video Codec
Format profile                           : [email protected]
Format settings                          : CABAC / 4 Ref Frames
Format settings, CABAC                   : Yes
Format settings, Reference frames        : 4 frames
Codec ID                                 : V_MPEG4/ISO/AVC
Duration                                 : 1 h 58 min
Bit rate mode                            : Variable
Bit rate                                 : 14.6 Mb/s
Maximum bit rate                         : 40.0 Mb/s
Width                                    : 1 920 pixels
Height                                   : 1 080 pixels
Display aspect ratio                     : 16:9
Frame rate mode                          : Constant
Frame rate                               : 23.976 (24000/1001) FPS
Color space                              : YUV
Chroma subsampling                       : 4:2:0
Bit depth                                : 8 bits
Scan type                                : Progressive
Bits/(Pixel*Frame)                       : 0.294
Stream size                              : 12.1 GiB (93%)
Title                                    : BEN.THE.MEN
Language                                 : English

Default                                  : Yes
Forced                                   : Yes
Color range                              : Limited
Color primaries                          : BT.709
Transfer characteristics                 : BT.709
Matrix coefficients                      : BT.709

Audio #1
ID                                       : 2
Format                                   : AC-3
Format/Info                              : Audio Coding 3
Commercial name                          : Dolby Digital
Codec ID                                 : A_AC3
Duration                                 : 1 h 58 min
Bit rate mode                            : Constant
Bit rate                                 : 640 kb/s
Channel(s)                               : 6 channels
Channel layout                           : L R C LFE Ls Rs
Sampling rate                            : 48.0 kHz
Frame rate                               : 31.250 FPS (1536 SPF)
Compression mode                         : Lossy
Stream size                              : 544 MiB (4%)
Title                                    : BTM DD 5.1
Language                                 : English

Service kind                             : Complete Main
Default                                  : Yes
Forced                                   : Yes
Dialog Normalization                     : -31 dB
cmixlev                                  : -4.5 dB
surmixlev                                : -6 dB
dialnorm_Average                         : -31 dB
dialnorm_Minimum                         : -31 dB
dialnorm_Maximum                         : -31 dB

Audio #2
ID                                       : 3
Format                                   : AC-3
Format/Info                              : Audio Coding 3
Commercial name                          : Dolby Digital
Codec ID                                 : A_AC3
Duration                                 : 1 h 58 min
Bit rate mode                            : Constant
Bit rate                                 : 384 kb/s
Channel(s)                               : 6 channels
Channel layout                           : L R C LFE Ls Rs
Sampling rate                            : 48.0 kHz
Frame rate                               : 31.250 FPS (1536 SPF)
Compression mode                         : Lossy
Stream size                              : 326 MiB (2%)
Title                                    : BTM DD 5.1
Language                                 : Spanish

Service kind                             : Complete Main
Default                                  : No
Forced                                   : No
Dialog Normalization                     : -31 dB
cmixlev                                  : -4.5 dB
surmixlev                                : -6 dB
dialnorm_Average                         : -31 dB
dialnorm_Minimum                         : -31 dB
dialnorm_Maximum                         : -31 dB
YouTube Video:   
Category:Movies
Language:Dubs/Dual Audio
Total Size:13.01 GB
Info Hash:62C8EB9B1D3106F22CF6C35A9EB2C7195D03BE4B
Added By:Freddy1714 Verified Uploader
Date Added:2024-06-16 08:17:39
Torrent Status:Torrent Verified


Ratings:Not Yet Rated (Log in to rate it)


Tracker:
udp://tracker.opentrackr.org:1337/announce

This Torrent also has backup trackers
URLSeedersLeechersCompleted
udp://tracker.opentrackr.org:1337/announce7223193
udp://open.stealth.si:80/announce5619155
udp://tracker.torrent.eu.org:451/announce6322163
udp://explodie.org:6969/announce000
udp://open.demonii.com:1337/announce51120
udp://tracker.tiny-vps.com:6969/announce245119
http://bt.okmp3.ru:2710/announce11324
https://tracker.tamersunion.org:443/announce1660
http://tracker.vraphim.com:6969/announce000
http://tracker2.dler.org:80/announce641
udp://exodus.desync.com:6969/announce16339
udp://tracker.bittor.pw:1337/announce000
http://secure.pow7.com/announce003
http://t1.pow7.com/announce003


File List: 





Comments
No comments still posted