Download Ripley S01 COMPLETE 2160p NF WEB-DL HDR DDP5 1 Atmos H265 MKV-BEN THE MEN torrent - GloDLS
Login
Username:
Password:
Remember Me:
[Signup]
[Recover Account]
Latest Forums Topics
Friends
Angie Torrents
Friendly Site

Get Into Way
Friendly site

Free Courses Online
Friendly site

KaranPC
Friendly site

OneHack
Friendly site

IGGGames
Friendly site

Torrent Details For "Ripley S01 COMPLETE 2160p NF WEB-DL HDR DDP5 1 Atmos H265 MKV-BEN THE MEN"

Ripley S01 COMPLETE 2160p NF WEB-DL HDR DDP5 1 Atmos H265 MKV-BEN THE MEN

To download this torrent, you need a BitTorrent client: Vuze or BTGuard
Download this torrent
Download using Magnet Link

Health:
Seeds: 256
Leechers: 579
Completed: 708 
Last Checked: 19-04-2024 13:37:03

Uploader Reputation points : 966





Write a Review for the Uploader:   0   Say Thanks with one good review:
Share on Facebook
TV Info

RIPLEY

A grifter is drawn into a world of wealth and privilege after taking a unique job in Italy. But to seize the life he wants, he must build a web of lies.



Details
Name:Ripley S01 COMPLETE 2160p NF WEB-DL HDR DDP5 1 Atmos H265 MKV-BEN THE MEN
Description:
Ripley.S01.COMPLETE.2160p.NF.WEB-DL.HDR.DDP5.1.Atmos.H265.MKV-BEN.THE.MEN

https://www.youtube.com/watch?v=0ri2biYLeaI

https://www.imdb.com/title/tt11016042/

A grifter named Ripley living in New York during the 1960s is hired by a wealthy man to bring his vagabond son home from Italy.

SUB LIST

English, Chinese, Arabic, Czech, Danish, German, Greek, Spanish, Finnish, French, Hebrew, Croatian, Hungarian, Indonesian, Italian, Japanese, Korean, Malay, Norwegian, Dutch, Polish, Portuguese, Romanian, Russian, Swedish, Thai, Turkish, Ukrainian, Vietnamese







Format                                   : Matroska
Format version                           : Version 4
File size                                : 6.91 GiB
Duration                                 : 49 min 57 s
Overall bit rate                         : 19.8 Mb/s
Frame rate                               : 23.976 FPS
Movie name                               : Ripley.S01E01.2160p.NF.WEB-DL.HDR[Ben The Men]
Encoded date                             : 2024-04-19 05:59:20 UTC
Writing application                      : mkvmerge v83.0 ('Circle Of Friends') 64-bit
Writing library                          : libebml v1.4.5 + libmatroska v1.7.1

Video
ID                                       : 1
Format                                   : HEVC
Format/Info                              : High Efficiency Video Coding
Format profile                           : Main 10@L5@Main
HDR format                               : SMPTE ST 2086, HDR10 compatible
Codec ID                                 : V_MPEGH/ISO/HEVC
Duration                                 : 49 min 57 s
Bit rate                                 : 19.0 Mb/s
Width                                    : 3 840 pixels
Height                                   : 2 160 pixels
Display aspect ratio                     : 16:9
Frame rate mode                          : Constant
Frame rate                               : 23.976 (24000/1001) FPS
Color space                              : YUV
Chroma subsampling                       : 4:2:0 (Type 2)
Bit depth                                : 10 bits
Bits/(Pixel*Frame)                       : 0.096
Stream size                              : 6.64 GiB (96%)
Title                                    : BEN.THE.MEN
Language                                 : English
Default                                  : Yes
Forced                                   : No
Color range                              : Limited
Color primaries                          : BT.2020
Transfer characteristics                 : PQ
Matrix coefficients                      : BT.2020 non-constant
Mastering display color primaries        : Display P3
Mastering display luminance              : min: 0.0001 cd/m2, max: 1000 cd/m2
Maximum Content Light Level              : 410 cd/m2
Maximum Frame-Average Light Level        : 398 cd/m2

Audio
ID                                       : 2
Format                                   : E-AC-3 JOC
Format/Info                              : Enhanced AC-3 with Joint Object Coding
Commercial name                          : Dolby Digital Plus with Dolby Atmos
Codec ID                                 : A_EAC3
Duration                                 : 49 min 57 s
Bit rate mode                            : Constant
Bit rate                                 : 768 kb/s
Channel(s)                               : 6 channels
Channel layout                           : L R C LFE Ls Rs
Sampling rate                            : 48.0 kHz
Frame rate                               : 31.250 FPS (1536 SPF)
Compression mode                         : Lossy
Stream size                              : 274 MiB (4%)
Title                                    : BTM DDP5.1 Atmos
Language                                 : English
Service kind                             : Complete Main
Default                                  : Yes
Forced                                   : No
Complexity index                         : 16
Number of dynamic objects                : 15
Bed channel count                        : 1 channel
Bed channel configuration                : LFE
Dialog Normalization                     : -28 dB
compr                                    : -0.28 dB
dmixmod                                  : 3
ltrtcmixlev                              : -3.0 dB
ltrtsurmixlev                            : -3.0 dB
lorocmixlev                              : -3.0 dB
lorosurmixlev                            : -3.0 dB
dialnorm_Average                         : -28 dB
dialnorm_Minimum                         : -28 dB
dialnorm_Maximum                         : -28 dB
YouTube Video:   
Category:TV
Language:English  English
Total Size:55.77 GB
Info Hash:2FFB2F6EC0E20C309A0CE610366173E2C5E14D1B
Added By:Freddy1714 Verified Uploader
Date Added:2024-04-19 14:39:37
Torrent Status:Torrent Verified


Ratings:Not Yet Rated (Log in to rate it)


Tracker:
udp://tracker.opentrackr.org:1337/announce

This Torrent also has backup trackers
URLSeedersLeechersCompleted
udp://tracker.opentrackr.org:1337/announce65139168
udp://open.stealth.si:80/announce62115149
udp://tracker.torrent.eu.org:451/announce63118159
http://bt.okmp3.ru:2710/announce6195
udp://6ahddutb1ucc3cp.ru:6969/announce6229
https://tracker.tamersunion.org:443/announce7330
http://tracker.vraphim.com:6969/announce42710
udp://tracker.cyberia.is:6969/announce330000
http://tracker2.dler.org:80/announce6209
udp://exodus.desync.com:6969/announce274570
udp://tracker.tiny-vps.com:6969/announce1041129


File List: 





Comments
No comments still posted