Download Robin Robin (2021) 1080p WEB-HDRip Dual Audio [Hindi ORG DD 5 1 + English] x264 AAC ESub By Full4Movies mkv torrent - GloDLS
HTML tutorial
Torrent Details For "Robin Robin (2021) 1080p WEB-HDRip Dual Audio [Hindi ORG DD 5 1 + English] x264 AAC E..."

Robin Robin (2021) 1080p WEB-HDRip Dual Audio [Hindi ORG DD 5 1 + English] x264 AAC E...

To download this torrent, you need a BitTorrent client: Vuze or BTGuard
Download this torrent
Download using Magnet Link

Health:
Seeds: 28
Leechers: 0
Completed: 312 
Last Checked: 08-12-2021 04:24:55

Uploader Reputation points : 7042





Write a Review for the Uploader:   5   Say Thanks with one good review:
Share on Facebook


Details
Name:Robin Robin (2021) 1080p WEB-HDRip Dual Audio [Hindi ORG DD 5 1 + English] x264 AAC E...
Description:


Visit Us = https://www.full4movies.cfd/



General
Complete name                  : Robin Robin (2021) 1080p WEB-HDRip Dual Audio [Hindi ORG DD 5.1 + English] x264 AAC ESub By Full4Movies.mkv
Format                         : Matroska
Format version                 : Version 4
File size                      : 633 MiB
Duration                       : 32 min 39 s
Overall bit rate               : 2 711 kb/s
Encoded date                   : UTC 2021-11-25 08:28:43 / UTC
Writing application            : mkvmerge v8.3.0 ('Over the Horizon') 64bit
Writing library                : libebml v1.3.1 + libmatroska v1.4.2 / Lavf55.12.0
Attachments                    : 383845052472320.jpg

Video
ID                             : 1
Format                         : AVC
Format/Info                    : Advanced Video Codec
Format profile                 : [email protected]
Format settings                : CABAC / 4 Ref Frames
Format settings, CABAC         : Yes
Format settings, Reference fra : 4 frames
Codec ID                       : V_MPEG4/ISO/AVC
Duration                       : 32 min 39 s
Bit rate                       : 2 500 kb/s
Width                          : 1 920 pixels
Height                         : 960 pixels
Display aspect ratio           : 2.000
Frame rate mode                : Constant
Frame rate                     : 24.000 FPS
Color space                    : YUV
Chroma subsampling             : 4:2:0
Bit depth                      : 8 bits
Scan type                      : Progressive
Bits/(Pixel*Frame)             : 0.057
Stream size                    : 584 MiB (92%)
Writing library                : x264 core 148 r2708 86b7198
Default                        : Yes
Forced                         : No
Color range                    : Limited
Color primaries                : BT.709
Transfer characteristics       : BT.709
Matrix coefficients            : BT.709

Audio #1
ID                             : 2
Format                         : AAC LC SBR
Format/Info                    : Advanced Audio Codec Low Complexity with Spectral Band Replication
Commercial name                : HE-AAC
Format settings                : NBC
Codec ID                       : A_AAC-5
Duration                       : 32 min 39 s
Bit rate                       : 128 kb/s
Channel(s)                     : 6 channels
Channel layout                 : C L R Ls Rs LFE
Sampling rate                  : 48.0 kHz
Frame rate                     : 23.438 FPS (2048 SPF)
Compression mode               : Lossy
Stream size                    : 29.9 MiB (5%)
Language                       : Hindi
Default                        : Yes
Forced                         : No

Audio #2
ID                             : 3
Format                         : AAC LC SBR
Format/Info                    : Advanced Audio Codec Low Complexity with Spectral Band Replication
Commercial name                : HE-AAC
Format settings                : NBC
Codec ID                       : A_AAC-5
Duration                       : 32 min 39 s
Bit rate                       : 80.0 kb/s
Channel(s)                     : 2 channels
Channel layout                 : L R
Sampling rate                  : 48.0 kHz
Frame rate                     : 23.438 FPS (2048 SPF)
Compression mode               : Lossy
Stream size                    : 18.7 MiB (3%)
Language                       : English
Default                        : No
Forced                         : No

Text
ID                             : 4
Format                         : ASS
Codec ID                       : S_TEXT/ASS
Codec ID/Info                  : Advanced Sub Station Alpha
Duration                       : 27 min 52 s
Bit rate                       : 93 b/s
Count of elements              : 370
Compression mode               : Lossless
Stream size                    : 19.1 KiB (0%)
Language                       : English
Default                        : No
Forced                         : No

Screen Shoots
YouTube Video:
Category:Movies
Language:Hindi  Hindi
Total Size:633.31 MB
Info Hash:EF3D132966658A69C2FDDF8E26F67EAF5C7C78A4
Added By:india4movie Verified Uploader
Date Added:2021-11-25 21:16:43
Torrent Status:Torrent Verified


Ratings:Not Yet Rated (Log in to rate it)


Tracker:
udp://tracker.opentrackr.org:1337/announce

This Torrent also has backup trackers
URLSeedersLeechersCompleted
udp://tracker.opentrackr.org:1337/announce60168
udp://9.rarbg.me:2790/announce000
udp://9.rarbg.to:2800/announce000
http://tracker.dler.org:6969/announce000
udp://tracker.internetwarriors.net:1337/announce4040
udp://open.stealth.si:80/announce4026
udp://fasttracker.foreverpirates.co:6969/announce000
udp://tracker.uw0.xyz:6969/announce000
udp://tracker.dler.org:6969/announce000
udp://opentor.org:2710/announce3041
udp://open.stealth.si:80/announce4026
udp://9.rarbg.me:2980/announce401
udp://tracker.openbittorrent.com:80/announce3010


File List: 





Comments
No comments still posted