Download Side Hustle Season 1 1080p Amazon WEB-DL DDP2.0 H.264-LAZY torrent - GloDLS
HTML tutorial
Torrent Details For "Side Hustle Season 1 1080p Amazon WEB-DL DDP2.0 H.264-LAZY"

Side Hustle Season 1 1080p Amazon WEB-DL DDP2.0 H.264-LAZY

To download this torrent, you need a BitTorrent client: Vuze or BTGuard
Download this torrent
Download using Magnet Link

Health:
Seeds: 4
Leechers: 2
Completed:
Last Checked: 14-10-2021 17:24:21

Uploader Reputation points : 654





Write a Review for the Uploader:   10   Say Thanks with one good review:
Share on Facebook


Details
Name:Side Hustle Season 1 1080p Amazon WEB-DL DDP2.0 H.264-LAZY
Description:
Side Hustle:

General
Unique ID : 151853797040199581859071022177613767884 (0x723DFA3CB5C76E5772F5F477E883E4CC)
Complete name : Side.Hustle.S01E01.Start.Hustling.1080p.AMZN.WEB-DL.DDP2.0.H.264-LAZY.mkv
Format : Matroska
Format version : Version 4
File size : 1.57 GiB
Duration : 22 min 58 s
Overall bit rate : 9 757 kb/s
Encoded date : UTC 2020-11-10 01:06:03
Writing application : mkvmerge v51.0.0 ('I Wish') 64-bit
Writing library : libebml v1.4.0 + libmatroska v1.6.2

Video
ID : 1
Format : AVC
Format/Info : Advanced Video Codec
Format profile : [email protected]
Format settings : CABAC / 4 Ref Frames
Format settings, CABAC : Yes
Format settings, RefFrames : 4 frames
Codec ID : V_MPEG4/ISO/AVC
Duration : 22 min 58 s
Bit rate mode : Constant
Bit rate : 10 000 kb/s
Width : 1 920 pixels
Height : 1 080 pixels
Display aspect ratio : 16:9
Frame rate mode : Constant
Frame rate : 23.976 (24000/1001) FPS
Color space : YUV
Chroma subsampling : 4:2:0
Bit depth : 8 bits
Scan type : Progressive
Bits/(Pixel*Frame) : 0.201
Stream size : 1.53 GiB (98%)
Default : Yes
Forced : No
Color range : Limited
Color primaries : BT.709
Transfer characteristics : BT.709
Matrix coefficients : BT.709

Audio
ID : 2
Format : E-AC-3
Format/Info : Enhanced AC-3
Commercial name : Dolby Digital Plus
Codec ID : A_EAC3
Duration : 22 min 58 s
Bit rate mode : Constant
Bit rate : 224 kb/s
Channel(s) : 2 channels
Channel layout : L R
Sampling rate : 48.0 kHz
Frame rate : 31.250 FPS (1536 SPF)
Compression mode : Lossy
Stream size : 36.8 MiB (2%)
Language : English
Service kind : Complete Main
Default : Yes
Forced : No

Text
ID : 3
Format : UTF-8
Codec ID : S_TEXT/UTF8
Codec ID/Info : UTF-8 Plain Text
Duration : 22 min 15 s
Bit rate : 101 b/s
Count of elements : 536
Stream size : 16.5 KiB (0%)
Title : SDH
Language : English
Default : No
Forced : No

Screenshots:
YouTube Video:   
Category:TV
Language:English  English
Total Size:38.52 GB
Info Hash:80F03AD2D64B76EBA06C7EC1F0F7FA276528D08B
Added By:LazyRips Verified Uploader
Date Added:2021-10-14 09:03:13
Torrent Status:Torrent Verified


Ratings:Not Yet Rated (Log in to rate it)


Tracker:
udp://tracker.opentrackr.org:1337/announce

This Torrent also has backup trackers
URLSeedersLeechersCompleted
udp://tracker.opentrackr.org:1337/announce212
udp://open.stealth.si:80/announce011
udp://tracker.openbittorrent.com:1337/announce101
http://tracker.files.fm:6969/announce001
udp://tracker.internetwarriors.net:1337/announce001
udp://exodus.desync.com:6969101
udp://tracker.uw0.xyz:6969/announce000
udp://tracker.tiny-vps.com:6969/announce001
udp://tracker.moeking.me:6969/announce000
udp://opentor.org:2710/announce000


File List: 





Comments
No comments still posted