Download Superman and Lois S01E09 WEB-DL XviD B4ND1T69 torrent - GloDLS
Login
Username:
Password:
Remember Me:
[Signup]
[Recover Account]
Friends
Angie Torrents
Friendly Site

Pirateiro
Friendly site

Free Courses Online
Friendly site

ETTV
Friendly site

ProStyleX
Friendly site

KaranPC
Friendly site

P2PDL.com
Friendly site

OneHack
Friendly site

IGGGames
Friendly site

Torrent Details For "Superman and Lois S01E09 WEB-DL XviD B4ND1T69"

Superman and Lois S01E09 WEB-DL XviD B4ND1T69

To download this torrent, you need a BitTorrent client: Vuze or BTGuard
Download this torrent
Download using Magnet Link

Health:
Seeds: 334
Leechers: 58
Completed: 1,779 
Last Checked: 09-06-2021 19:55:41

Uploader Reputation points : 886





Write a Review for the Uploader:   0   Say Thanks with one good review:
Share on Facebook
TV Info

Superman & Lois

After years of facing megalomaniacal supervillains, monsters wreaking havoc on Metropolis, and alien invaders intent on wiping out the human race, The Man of Steel aka Clark Kent and Lois Lane come face to face with one of their greatest challenges ever - dealing with all the stress, pressures and complexities that come with being working parents in today's society.



Details
Name:Superman and Lois S01E09 WEB-DL XviD B4ND1T69
Description:
Superman.and.Lois.S01E09.WEB-DL.XviD.B4ND1T69



Creators: Greg Berlanti, Todd Helbing
Stars: Tyler Hoechlin, Elizabeth Tulloch, Alex Garfin

Plot/Story:
Loyal Subjekts
Lois, Chrissy and Clark team up to piece together the significance of Smallville to Morgan Edge.

General
Complete name               : Superman.and.Lois.S01E09.WEB-DL.XviD.B4ND1T69.avi
Format                      : AVI
Format/Info                 : Audio Video Interleave
File size                   : 234 MiB
Duration                    : 43 min 36 s
Overall bit rate            : 750 kb/s
Subtitles                   : Yes...Included(HI)

Video
ID                          : 0
Format                      : MPEG-4 Visual
Format profile              : Advanced [email protected]
Format settings, BVOP       : 2
Format settings, QPel       : No
Format settings, GMC        : No warppoints
Format settings, Matrix     : Default (H.263)
Codec ID                    : XVID
Codec ID/Hint               : XviD
Duration                    : 43 min 36 s
Bit rate                    : 609 kb/s
Width                       : 640 pixels
Height                      : 288 pixels
Display aspect ratio        : 2.222
Frame rate                  : 23.976 (24000/1001) FPS
Color space                 : YUV
Chroma subsampling          : 4:2:0
Bit depth                   : 8 bits
Scan type                   : Progressive
Compression mode            : Lossy
Bits/(Pixel*Frame)          : 0.138
Stream size                 : 190 MiB (81%)
Writing library             : XviD 64

Audio
ID                          : 1
Format                      : MPEG Audio
Format version              : Version 1
Format profile              : Layer 3
Codec ID                    : 55
Codec ID/Hint               : MP3
Duration                    : 43 min 36 s
Bit rate mode               : Constant
Bit rate                    : 128 kb/s
Channel(s)                  : 2 channels
Sampling rate               : 48.0 kHz
Compression mode            : Lossy
Stream size                 : 39.9 MiB (17%)
Alignment                   : Aligned on interleaves
Interleave, duration        : 24  ms (0.58 video frame)

Screenshots:







Please Seed For As Long As Possible
Or At Least 1:1 Ratio...Thanks
Enjoy Peeps
YouTube Video:   
Category:TV
Language:English  English
Total Size:234.06 MB
Info Hash:AF973C8B1C988C3D5DCA9FFE216D6077F853797A
Added By:B4ND1T69 Verified UploaderMovie Pirate
Date Added:2021-06-09 15:30:52
Torrent Status:Torrent Verified


Ratings:Not Yet Rated (Log in to rate it)


Tracker:
udp://tracker.opentrackr.org:1337/announce

This Torrent also has backup trackers
URLSeedersLeechersCompleted
udp://tracker.opentrackr.org:1337/announce4711312
udp://exodus.desync.com:6969/announce295154
udp://open.demonii.si:1337/announce000
udp://9.rarbg.to:2750/announce346344
udp://open.stealth.si:80/announce305175
udp://tracker.uw0.xyz:6969/announce344162
udp://tracker.tiny-vps.com:6969/announce27497
udp://fasttracker.foreverpirates.co:6969/announce000
udp://explodie.org:6969/announce1650
udp://tracker.cyberia.is:6969/announce000
udp://ipv4.tracker.harry.lu:80/announce1360
udp://opentracker.i2p.rocks:6969/announce394208
udp://tracker.moeking.me:6969/announce293156
udp://opentor.org:2710/announce335169
udp://tracker.dler.org:6969/announce302


File List: 





Comments
No comments still posted