Download Air Force One Down 2024 1080p AMZN WEB-DL DDP5 1 H 264-FLUX torrent - GloDLS
Login
Username:
Password:
Remember Me:
[Signup]
[Recover Account]
Friends
Angie Torrents
Friendly Site

Get Into Way
Friendly site

Free Courses Online
Friendly site

KaranPC
Friendly site

OneHack
Friendly site

IGGGames
Friendly site

Torrent Details For "Air Force One Down 2024 1080p AMZN WEB-DL DDP5 1 H 264-FLUX"

Air Force One Down 2024 1080p AMZN WEB-DL DDP5 1 H 264-FLUX

To download this torrent, you need a BitTorrent client: Vuze or BTGuard
Download this torrent
Download using Magnet Link

Health:
Seeds: 1
Leechers: 0
Completed:
Last Checked: 14-02-2024 12:20:44

Uploader Reputation points : 31132





Write a Review for the Uploader:   45   Say Thanks with one good review:
Share on Facebook


Details
Name:Air Force One Down 2024 1080p AMZN WEB-DL DDP5 1 H 264-FLUX
Description:


Air Force One Down 2024 1080p AMZN WEB-DL DDP5 1 H 264-FLUX




Format : Matroska
Format version : Version 4
File size : 4.90 GiB
Duration : 1 h 27 min
Overall bit rate : 8 028 kb/s
Frame rate : 23.976 FPS
Writing application : mkvmerge v81.0 ('Milliontown') 64-bit
Writing library : libebml v1.4.4 + libmatroska v1.7.1

Video
ID : 1
Format : AVC
Format/Info : Advanced Video Codec
Format profile : High@L4
Format settings : CABAC / 4 Ref Frames
Format settings, CABAC : Yes
Format settings, Reference frames : 4 frames
Codec ID : V_MPEG4/ISO/AVC
Duration : 1 h 27 min
Bit rate mode : Constant
Bit rate : 7 228 kb/s
Nominal bit rate : 10 000 kb/s
Width : 1 920 pixels
Height : 800 pixels
Display aspect ratio : 2.40:1
Frame rate mode : Constant
Frame rate : 23.976 (24000/1001) FPS
Color space : YUV
Chroma subsampling : 4:2:0
Bit depth : 8 bits
Scan type : Progressive
Bits/(Pixel*Frame) : 0.196
Stream size : 4.42 GiB (90%)
Default : Yes
Forced : No
Color range : Limited
Color primaries : BT.709
Transfer characteristics : BT.709
Matrix coefficients : BT.709

Audio
ID : 2
Format : E-AC-3
Format/Info : Enhanced AC-3
Commercial name : Dolby Digital Plus
Codec ID : A_EAC3
Duration : 1 h 27 min
Bit rate mode : Constant
Bit rate : 640 kb/s
Channel(s) : 6 channels
Channel layout : L R C LFE Ls Rs
Sampling rate : 48.0 kHz
Frame rate : 31.250 FPS (1536 SPF)
Compression mode : Lossy
Stream size : 400 MiB (8%)
Language : English (US)
Service kind : Complete Main
Default : Yes
Forced : No

Text #1
ID : 3
Format : UTF-8
Codec ID : S_TEXT/UTF8
Codec ID/Info : UTF-8 Plain Text
Language : English (US)
Default : No
Forced : No

Screens:



YouTube Video:
Category:Movies
Language:English  English
Total Size:4.90 GB
Info Hash:5B767BC4E15DA814639668F3584C6A165180173B
Added By:Radioactive Verified UploaderMovie PirateVIP
Date Added:2024-02-14 20:20:43
Torrent Status:Torrent Verified


Ratings:Not Yet Rated (Log in to rate it)


Tracker:
udp://tracker.opentrackr.org:1337/announce

This Torrent also has backup trackers
URLSeedersLeechersCompleted
udp://tracker.opentrackr.org:1337/announce000
udp://exodus.desync.com:6969/announce000
udp://9.rarbg.me:2970/announce000
udp://tracker.opentrackr.org:1337/announce000
udp://tracker.tiny-vps.com:6969/announce000
udp://tracker.internetwarriors.net:1337/announce000
udp://opentor.org:2710/announce000
udp://tracker.torrent.eu.org:451/announce000
udp://explodie.org:6969/announce000
udp://tracker.moeking.me:6969/announce000
udp://tracker.cyberia.is:6969/announce000
udp://9.rarbg.me:2980/announce000
udp://9.rarbg.to:2940/announce000
udp://tracker.uw0.xyz:6969/announce000
udp://tracker.openbittorrent.com:1337/announce000


File List: 





Comments
No comments still posted